<?xml version="1.0" encoding="UTF-8" standalone="no"?>
<svg xmlns="http://www.w3.org/2000/svg" xmlns:xlink="http://www.w3.org/1999/xlink" version="1.1">
  <metadata>
Created by FontForge 20201107 at Wed Mar 27 21:39:24 2024
 By 
Copyright (c) 2021, Gartype Studio. All Right Reserved
</metadata>
  <defs>
    <font id="PlaybusBaysGTDemo">
      <glyph glyph-name=".notdef" d="M102 0v1092h820v-1092h-820zM205 102h614v887h-614v-887z"></glyph>
      <glyph glyph-name=".null"></glyph>
      <glyph glyph-name="nonmarkingreturn"></glyph>
      <glyph glyph-name="space" unicode=" "></glyph>
      <glyph glyph-name="exclam" unicode="!" d="M106 331q11 3 41 -2q59 -11 97 -125t28.5 -223t-66.5 -109q-15 0 -31.5 9.5t-24.5 22.5q-19 29 -50 235q-16 103 -15.5 144.5t21.5 47.5zM146 1725q19 0 30.5 -22t19.5 -85.5t11.5 -165t5.5 -274.5q5 -534 10 -597q3 -34 -20.5 -53t-55.5 -12.5t-51 37.5 q-35 57 -50.5 433t10.5 548q29 191 90 191z"></glyph>
      <glyph glyph-name="quotedbl" unicode="&quot;" d="M443 1710q38 0 55 -24.5t19.5 -88.5t-11.5 -175q-12 -106 -34 -153.5t-62 -55.5t-57 11.5t-17 72.5q1 154 34.5 283.5t72.5 129.5zM103 1753q117 0 96 -397q-10 -195 -66 -226q-29 -16 -63 18q-12 12 -20.5 105t-8.5 212q0 170 12.5 229t49.5 59z"></glyph>
      <glyph glyph-name="numbersign" unicode="#" d="M818 1015q-66 2 -165 -26q-123 -34 -189.5 -126.5t-32.5 -182.5q16 -42 87 -58t154 1.5t131 60.5q38 34 59.5 105t17 136.5t-35.5 84.5q-8 5 -26 5zM1026 1690q39 -1 73 -59t34 -134q0 -121 28.5 -186t80.5 -65q60 0 56 -40q-5 -57 -125 -158q-66 -55 -97.5 -114 t-27 -106.5t45 -81t112.5 -40.5q88 -8 117.5 -30.5t-2.5 -55t-122 -70.5q-69 -29 -106 -51.5t-64 -61.5t-39 -87.5t-24 -135.5q-12 -88 -35.5 -131t-63.5 -51q-26 -5 -39 -1t-21.5 24t-7 60t4.5 106l13 204l-150 12q-137 11 -211 -59t-89 -224q-6 -68 -26.5 -112t-47.5 -52 t-58 20q-12 12 -20.5 67.5t-8.5 122.5q0 86 -20 135t-65 78q-56 35 -73.5 72.5t6 70.5t83.5 56q44 17 77.5 58.5t43.5 90.5q13 71 -4.5 94.5t-95.5 39.5q-79 16 -104.5 45.5t6 67t114.5 73.5q87 38 118.5 85.5t54.5 174.5q29 164 78 195q36 23 61 -45q17 -48 23 -129 q5 -66 10 -97.5t20 -54t36.5 -29.5t64.5 -12q49 -5 115.5 11.5t109.5 44.5q64 42 82.5 86t11.5 139q-4 64 2 126t20 84q19 30 45 30z"></glyph>
      <glyph glyph-name="dollar" unicode="$" d="M654 658q-46 -2 -62 -55t-8 -168q13 -204 76.5 -246.5t207.5 55.5q122 83 110.5 175t-155.5 175q-115 67 -169 64zM513 1895q11 3 21 0q11 -3 22 -15q10 -12 15.5 -55.5t2.5 -91.5q-8 -116 36 -139t183 24q109 37 181 44.5t106.5 -15t31.5 -73.5q-3 -48 -29.5 -64.5 t-92.5 -11.5q-130 9 -263 -71t-164 -185q-47 -161 16.5 -268t269.5 -214q154 -80 235.5 -171.5t86.5 -181t-67 -175t-217 -154.5q-130 -61 -191 -142.5t-26 -146.5q10 -22 -16.5 -39.5t-58.5 -19.5q-65 2 -93 80q-21 59 -70 86t-173 48q-116 20 -164 44.5t-53 65.5 q-4 32 8.5 46t53.5 18t117 -3q188 -13 213 42q10 23 7 118t-18 205q-21 153 -55 238t-103 157q-65 81 -84.5 134.5t-0.5 117.5t88 159q54 86 90 185.5t41 178.5q7 92 41 163t73 82z"></glyph>
      <glyph glyph-name="percent" unicode="%" d="M1210 534q-71 14 -128 -33t-87 -146q-23 -77 -16 -117.5t48 -75.5q49 -42 79 -53.5t66 -2t106 48.5q107 59 115 159t-88 174q-47 37 -95 46zM1216 685q145 -6 255 -125q68 -73 85.5 -161.5t-11.5 -168.5t-104 -148t-182 -104q-90 -29 -128 -35.5t-72 1.5t-102 42 q-100 49 -129.5 173t24.5 265q49 129 149 198t215 63zM344 1488q-55 -2 -91.5 -41t-36.5 -96.5t46 -122.5q19 -25 25.5 -34t21 -23t17.5 -17.5t17 -7.5t18.5 -2.5t22 6t28 9.5t36.5 16q84 37 88 120t-75 147q-58 48 -117 46zM362 1688q30 -2 92.5 -48.5t120.5 -110.5 q125 -138 128 -254t-117 -219q-113 -98 -227 -83t-222 142q-74 87 -89 136.5t8 131.5q32 116 130 213.5t176 91.5zM979 1715q21 -2 32.5 -15t14 -49.5t-5 -91t-27 -149t-49 -213t-74.5 -293.5q-39 -150 -65.5 -250.5t-52.5 -193.5t-42.5 -148t-34.5 -103t-30.5 -71.5 t-27.5 -41.5t-27.5 -23.5t-30.5 -7.5q-29 -4 -49.5 2t-19.5 18q2 31 145 552q164 605 214 803q24 94 46.5 155.5t43 91.5t40.5 28z"></glyph>
      <glyph glyph-name="ampersand" unicode="&amp;" d="M427 641q-61 5 -120 -66t-84 -195q-33 -164 23 -187t198 97q79 66 96.5 107.5t-1.5 113.5q-33 123 -112 130zM388 1655q98 0 194.5 -39t155.5 -108q38 -44 55.5 -82t12 -58.5t-25.5 -27.5t-58 8.5t-84 51.5q-93 73 -190.5 85.5t-151.5 -41.5q-27 -24 -23 -80.5t26 -121 t64.5 -133t93.5 -116.5q48 -45 88.5 -104t50.5 -97q23 -92 95 -117t139 36q46 42 68 43t53 -37q28 -34 25 -57t-40 -54q-61 -50 -61.5 -124t59.5 -153q26 -34 44.5 -73t19.5 -61q1 -35 -27.5 -47t-69 4t-71.5 53q-58 70 -135 55t-200 -120q-127 -109 -224 -119t-176 77 q-137 152 86 573l106 200l-86 202q-162 378 -4 521q68 61 191 61z"></glyph>
      <glyph glyph-name="quotesingle" unicode="'" d="M101 1749q58 0 84 -74.5t26 -244.5q0 -130 -43 -177q-32 -36 -65 6q-20 26 -34 79h-1q-23 87 -26.5 184.5t13 162t46.5 64.5z"></glyph>
      <glyph glyph-name="parenleft" unicode="(" d="M321 1952q21 -5 26.5 -39.5t-8.5 -100t-49 -149.5q-72 -174 -82 -545.5t43.5 -722t147.5 -465.5q40 -49 46 -80.5t-19 -59.5q-26 -28 -60 -13t-92 79q-90 99 -151 366.5t-77 564.5t13 581.5t103 416.5q49 88 91.5 130.5t67.5 36.5z"></glyph>
      <glyph glyph-name="parenright" unicode=")" d="M155 1881q50 0 74 -39q61 -97 120.5 -359.5t75.5 -504.5q8 -165 8 -326t-25 -324.5t-73 -268.5q-95 -208 -164 -275.5t-127 -9.5q-11 11 10.5 69.5t63.5 130.5q108 187 148.5 465t7.5 589.5t-133 597.5q-28 81 -40.5 121.5t-14 69.5t8 39.5t32.5 19.5q15 5 28 5z"></glyph>
      <glyph glyph-name="asterisk" unicode="*" d="M234 1717q20 3 34.5 -29.5t14.5 -90.5q0 -7 -0.5 -17.5t-0.5 -15.5q21 11 85 53q50 28 50 -9q-1 -45 -63 -123q-19 -23 -40 -45q-1 -13 20 -23t51.5 -21t41.5 -22q44 -41 43 -86q0 -32 -26 -32q-11 0 -24 7q-19 10 -54 32.5t-61.5 35.5t-48.5 12q-42 -2 -99 -79 q-34 -45 -77 -50q-36 1 -39 33q4 31 24 59.5t42.5 45.5t40 36.5t16.5 35.5q0 10 -18 20t-42.5 22.5t-36.5 25.5q-37 53 -19 98q15 35 48 29q23 -5 45 -30q15 -18 35 -32q3 57 15 97q16 59 43 63z"></glyph>
      <glyph glyph-name="plus" unicode="+" d="M276 1089q57 -9 100 -78q5 -8 -2.5 -77.5t7.5 -75.5q15 -10 73 4t68 13q67 -10 100 -62q27 -45 4 -76q-17 -23 -58 -23q-18 0 -48.5 6t-54 11t-46.5 2.5t-33 -16.5t-12 -38.5t1.5 -48t7.5 -57.5t4 -58q-6 -34 -51.5 -43t-85 19t-31.5 85q0 5 6.5 24.5t12.5 38.5t4.5 41.5 t-14.5 35.5q-20 21 -96.5 14.5t-87.5 5.5q-7 72 7.5 100.5t72.5 34.5q10 -1 29 -5t33 -6.5t28 -1.5t20 9q7 19 3.5 49.5t-11 72t-7.5 45.5q0 31 16 45t41 10z"></glyph>
      <glyph glyph-name="comma" unicode="," d="M322 371q10 0 19 -4q28 -10 43 -32t7 -42q-96 -237 -180.5 -405t-107.5 -168q-16 0 -33.5 17t-26.5 41t21.5 123t82.5 214q64 142 103 199t72 57z"></glyph>
      <glyph glyph-name="hyphen" unicode="-" d="M426 895q183 0 256.5 -13t73.5 -45q0 -34 -98.5 -62.5t-221.5 -40.5t-236 -4t-139 39q-69 84 103 111q93 15 262 15z"></glyph>
      <glyph glyph-name="period" unicode="." d="M164 331q91 0 159.5 -64t44.5 -127q-16 -42 -81 -56t-132 5t-90 63q-41 80 -14 129.5t113 49.5z"></glyph>
      <glyph glyph-name="slash" unicode="/" d="M706 1638q29 -8 49 -62q19 -48 -149.5 -546.5t-308.5 -809.5q-51 -113 -103.5 -186.5t-82.5 -73.5q-29 0 -49.5 13t-20.5 32t53.5 156t128.5 310t159 405.5t128 385.5q54 194 104.5 290.5t91.5 85.5z"></glyph>
      <glyph glyph-name="zero" unicode="0" d="M830 1194q-89 -19 -268 -375q-62 -123 -101 -209.5t-61.5 -155t-25.5 -110t12.5 -68.5t47.5 -37.5t85 -10.5q37 0 90 28.5t90 67.5q95 101 157.5 264.5t62.5 309.5q0 159 -22 232.5t-67 63.5zM517 1349q-28 -2 -51 -8q-124 -29 -179.5 -95t-83.5 -217q-16 -86 -20 -152.5 t3 -106t22.5 -58.5t40 -10.5t54.5 38.5t67.5 88t76.5 138q127 258 131 329q4 53 -47 54q-6 1 -14 0zM491 1484q106 5 207 -4.5t136 -28.5q61 -33 120 -126t96 -211.5t37 -219.5q0 -103 -35.5 -221.5t-95 -225t-131 -195t-151.5 -140.5t-149 -52q-39 0 -97 21t-100 51 q-118 81 -164.5 162.5t-88.5 279.5q-49 231 -28 453.5t102 331.5q38 51 74.5 74.5t93.5 34t174 16.5z"></glyph>
      <glyph glyph-name="one" unicode="1" d="M326 1558q60 -5 116 -61q40 -40 56 -97.5t22 -182t6 -415.5q0 -401 -12.5 -553.5t-51.5 -152.5t-62.5 165.5t-23.5 436.5q0 494 -14 605q-12 85 -37 85q-26 0 -82 -91q-55 -96 -109 -118.5t-89 34.5q-15 25 28.5 101.5t110.5 150t110 90.5q11 5 32 3z"></glyph>
      <glyph glyph-name="two" unicode="2" d="M457 1573q112 0 203.5 -76.5t120.5 -194.5q28 -109 -29.5 -263.5t-185.5 -315.5q-62 -78 -143.5 -203t-81.5 -145q0 -23 55 -40.5t145 -23.5q122 -8 186 -27t72 -59q9 -46 -53.5 -60t-243.5 -13q-111 1 -210.5 13.5t-129.5 30.5v1q-57 34 -47 113t66.5 179t146.5 204 q166 192 232 289q92 135 62 266q-22 99 -102 145q-91 53 -195 1q-51 -27 -98 -78q-45 -50 -88.5 -68t-70.5 0.5t-27 68.5q0 51 67.5 112t166.5 102.5t182 41.5z"></glyph>
      <glyph glyph-name="three" unicode="3" d="M340 1463q89 -5 151 -39t68 -85q4 -30 -27.5 -86t-78.5 -106t-75.5 -103t-21.5 -78t71 -86.5t146 -122.5q154 -114 204.5 -226.5t-13.5 -199.5q-46 -63 -129.5 -112.5t-170 -72.5t-169 -18t-128.5 44q-43 37 -39 89q3 41 32 48q20 5 44 -12q28 -20 85.5 -21t116.5 12.5 t111.5 41t72.5 58.5q16 25 22 41.5t-1 43t-23.5 49t-61.5 69t-98 94t-149 131.5q-101 89 -110 164.5t71 173.5q45 56 51.5 98.5t-24.5 52.5t-91 -14q-52 -23 -78 -19.5t-44 37.5q-29 55 8.5 88t156.5 57q62 12 121 9z"></glyph>
      <glyph glyph-name="four" unicode="4" d="M633 1244q-9 1 -25 -7.5t-38.5 -26.5t-41.5 -33.5t-48 -40.5t-44 -38q-74 -62 -119.5 -127t-19.5 -81q27 -17 79 -19.5t105 7t96 34.5t52 59q9 33 16 97t5 119.5t-17 56.5zM780 1471q29 -2 36 -75t-2 -194.5t-22 -252.5t-22 -277.5t-3 -240.5q4 -172 -7 -239.5t-43 -67.5 q-23 0 -47.5 19t-34.5 47v1q-11 28 -18.5 114t-7.5 180q0 229 -52 233q-73 5 -284 10q-108 3 -154 10.5t-62 26t-16 60.5q0 90 310 368q309 277 429 278z"></glyph>
      <glyph glyph-name="five" unicode="5" d="M514 1498q66 3 153 -8q178 -18 247 -39t69 -57t-70 -55.5t-257 -34.5q-55 -4 -96 -8.5t-74 -11.5t-55 -12t-40.5 -17t-28.5 -19.5t-22.5 -25.5t-18 -30t-18.5 -38t-23 -44q-24 -45 -35.5 -77.5t-11.5 -69.5t20.5 -65t68.5 -55.5t125 -49.5q117 -33 207 -81t140.5 -104 t66 -115.5t-12.5 -119t-97 -110.5q-81 -60 -274.5 -107t-263.5 -24q-46 15 -53.5 48.5t24 61t84.5 27.5q74 0 169.5 30.5t162.5 74t67 77.5q0 65 -65.5 109.5t-220.5 85.5q-68 19 -122.5 53t-116.5 89q-125 113 -95 260t217 343q6 5 24 19.5t24 19.5t22 17t24.5 16.5 t24 13.5t28 13t29.5 9t35.5 7.5t38.5 3.5z"></glyph>
      <glyph glyph-name="six" unicode="6" d="M565 694q-26 3 -65 -1q-117 -10 -207 -68t-90 -139q0 -51 45.5 -101t110.5 -75t117 -10q35 10 90.5 38.5t97.5 58.5q100 71 113.5 120t-48.5 111q-58 58 -164 66zM416 1497q75 0 62 -106q-11 -88 -82 -226q-161 -314 -161 -332q0 -6 16.5 -5t44 5.5t62.5 9.5t72.5 7 t74.5 -3q354 -47 438.5 -192t-130.5 -334q-120 -96 -242.5 -146t-261.5 -35q-110 23 -179.5 113.5t-84 223t25.5 295.5q32 121 105.5 295t144 302t95.5 128z"></glyph>
      <glyph glyph-name="seven" unicode="7" d="M203 1607q78 0 194.5 -30.5t156.5 -67.5q23 -21 34 -46t12.5 -51.5t-5 -71t-16 -87.5t-24 -118.5t-24.5 -147.5q-56 -389 -118 -640t-112 -251q-25 0 -43 15.5t-18 36.5h1q0 22 37 252t65 384q6 33 18 95q22 118 31 171.5t15.5 131.5t-6 110t-38.5 69t-76.5 49t-125.5 12 q-69 0 -94.5 19.5t-25.5 72.5q0 58 30.5 75.5t131.5 17.5z"></glyph>
      <glyph glyph-name="eight" unicode="8" d="M404 756q-101 6 -167 -85q-69 -95 -60.5 -173t98.5 -164q87 -83 153 -93.5t185 41.5v-1q45 19 84.5 63.5t50.5 86.5q16 62 -6.5 104.5t-108.5 111.5q-127 103 -229 109zM549 1568q85 -6 151 -53q50 -35 72.5 -163t-3.5 -305q-21 -121 -70 -157q-33 -25 -52 8 q-26 45 3 150q30 108 10 185t-62 120t-91 48q-60 7 -134.5 -36t-119 -106t-26.5 -107q10 -24 85.5 -85.5t171.5 -122.5q346 -221 424 -403t-115 -320q-106 -75 -218 -108t-194 -11q-117 30 -189.5 85.5t-110.5 142.5q-47 110 -38.5 217.5t75.5 231.5q44 81 42.5 121 t-51.5 130q-74 133 -41 238.5t178 200.5q165 108 303 99z"></glyph>
      <glyph glyph-name="nine" unicode="9" d="M572 1548q109 6 154 -36q54 -51 -8 -73q-48 -16 -156 -9q-62 4 -125.5 -25.5t-109 -75.5t-75.5 -97t-33 -91q-10 -117 113 -51q114 61 326 268q84 82 134.5 107t102.5 9q66 -20 90.5 -169t14.5 -492q0 -40 2.5 -105t3 -100t-2 -86.5t-12.5 -85t-27.5 -74.5t-48.5 -76.5 t-74 -69.5q-80 -63 -182.5 -94.5t-191.5 -21.5t-132 59q-27 31 -32.5 59.5t9.5 42.5t43.5 16.5t68.5 -19.5q87 -44 190.5 -15.5t161.5 113.5q64 87 93 237.5t24.5 290.5t-22 252.5t-39.5 142.5q-12 17 -38 -5t-82 -74t-116 -84q-56 -30 -122 -74.5t-106 -71.5t-84 -47.5 t-81 -15.5t-72 36q-104 92 -87.5 200.5t155.5 240.5q78 74 179 116t194 48z"></glyph>
      <glyph glyph-name="colon" unicode=":" d="M221 637q71 0 98.5 -63t2.5 -164q-23 -89 -78.5 -117t-129.5 13q-51 29 -66 85.5t2.5 110.5t64 94.5t106.5 40.5zM211 1398q37 5 69.5 -7t52.5 -36.5t28.5 -54.5t-0.5 -63t-35 -59l-13 -13q-46 -47 -63 -48t-70 38q-10 8 -16 12q-48 35 -58 87t19 94t86 50z"></glyph>
      <glyph glyph-name="semicolon" unicode=";" d="M262 568q18 2 34 -17.5t29 -60.5q19 -60 -13 -189.5t-89 -238.5t-102 -118q-50 -9 -59.5 7t8.5 77q28 96 78 320q23 103 53.5 160.5t60.5 59.5zM148 1405q46 6 84 -14.5t56 -54.5t13 -76.5t-38 -75.5l-13 -13q-46 -47 -63 -48t-70 38q-10 8 -16 12q-48 35 -58 87t19 94.5 t86 50.5z"></glyph>
      <glyph glyph-name="less" unicode="&lt;" d="M438 1154q18 -4 31 -19q28 -29 9.5 -65t-97.5 -107q-70 -62 -101.5 -111.5t-28 -98t42.5 -95t118 -101.5q133 -94 154 -171q15 -60 -50 -82q-18 -6 -95 49.5t-168 139.5q-75 70 -119.5 119t-69.5 97.5t-24 85.5t28 82.5t73.5 88.5t124.5 103q126 96 172 85z"></glyph>
      <glyph glyph-name="equal" unicode="=" d="M236 683q63 -1 158 -9q265 -20 311 -35q36 -12 27 -38q-3 -10 -14 -27q-14 -22 -170 -35.5t-315.5 -9.5t-180.5 25q-11 11 -11.5 35.5t9.5 49.5q10 27 51 37t135 7zM285 1050q88 2 188 -5q247 -17 262 -57q1 -5 -1 -10q2 -26 -54.5 -43.5t-140 -22.5t-170.5 -3t-155 13.5 t-83 29.5q-68 78 94 94q27 3 60 4z"></glyph>
      <glyph glyph-name="greater" unicode="&gt;" d="M87 1113q64 0 183 -74t151 -134q76 -141 -129 -430q-47 -65 -89.5 -104t-79 -47.5t-58.5 27.5q-10 16 23.5 88t77.5 143q87 141 83 226t-101 129q-64 29 -94 88q-28 54 0 78q12 10 33 10z"></glyph>
      <glyph glyph-name="question" unicode="?" d="M355 300q38 0 65 -51.5t27 -123.5t-27 -123t-65 -51t-65 51t-27 123t27 123.5t65 51.5zM415 1694q91 -8 174.5 -92.5t83.5 -174.5q0 -40 -27 -140.5t-65 -200.5t-72 -220t-44 -188q-22 -154 -78 -183q-31 -16 -64 17q-43 42 -22.5 181.5t98.5 330.5q44 107 74.5 212.5 t30.5 147.5q0 72 -40 105t-102 17t-120 -77q-104 -109 -161 -97q-40 8 -40 76q0 70 106 162t219 121q24 6 49 3z"></glyph>
      <glyph glyph-name="at" unicode="@" d="M1210 1869q202 0 391 -100.5t310 -272.5q82 -116 103 -195t19 -266q-3 -308 -103.5 -474t-284.5 -166q-34 0 -85 36.5t-88 87.5l-88 124l-185 -129q-144 -102 -269.5 -121t-199.5 47t-74 203q0 83 73.5 180.5t173 169t204.5 111t163 17.5q49 -19 54.5 -66.5t-30 -86 t-88.5 -35.5q-51 10 -105 -2.5t-97.5 -39.5t-81.5 -64t-61.5 -75t-33.5 -73t-1 -58q34 -88 136 -55q111 35 241 187q60 71 114 158q46 74 74.5 87.5t80.5 -14.5q83 -44 83 -186q0 -67 16.5 -116.5t43 -74.5t59.5 -28.5t65.5 15.5t62 64t47.5 110q50 181 37 329t-90 283 q-91 158 -242.5 239.5t-355.5 80.5q-199 -1 -384.5 -86t-320.5 -225.5t-216.5 -332.5t-81.5 -398q0 -140 23.5 -212t101.5 -169q163 -203 305.5 -274.5t382.5 -71.5q175 0 259 20.5t183 87.5q159 108 202 65q46 -46 -22.5 -119.5t-221.5 -143.5q-133 -61 -345 -71.5 t-366 36.5q-140 42 -302 164.5t-236 242.5q-42 68 -70.5 177.5t-39.5 238.5q-15 183 3 271.5t108 270.5q100 204 267.5 363t371.5 247t411 88z"></glyph>
      <glyph glyph-name="A" unicode="A" d="M565 1370q-66 -17 -178 -303q-72 -186 -83 -282t40 -114q66 -17 150 -9.5t160.5 37t87.5 63.5q20 63 -19.5 262.5t-91.5 296.5q-22 42 -47 49q-9 3 -19 0zM579 1606q93 0 158.5 -123.5t134.5 -429.5q16 -72 25.5 -158t14.5 -140t13 -69q22 -42 29 -213t-5 -326t-38 -155 q-10 0 -13 0.5t-13 5t-16 17.5t-14.5 35t-16 61t-13.5 92l-45 286l-217 13q-219 13 -304.5 -68.5t-85.5 -302.5q0 -120 -13.5 -165.5t-49.5 -45.5q-63 0 -67 137q-7 238 17 405t101 406q237 738 418 738z"></glyph>
      <glyph glyph-name="B" unicode="B" d="M298 877q-29 5 -36 -2q-14 -14 -24 -58t-11 -92q-4 -128 -33 -283q-13 -67 -19 -126.5t-2 -73.5t70 -39t156 -46q118 -27 204 -24.5t174 36.5q157 60 199.5 164t-50.5 201q-76 79 -303.5 202t-324.5 141zM495 1468q-19 0 -87 -53q-52 -40 -88 -96t-38 -95t29 -52 q17 -4 55.5 18.5t75.5 58.5q39 38 61.5 85t17.5 81q-7 53 -26 53zM591 1621q115 0 176 -43t45 -115q-6 -26 -54 -90.5t-110 -130.5q-61 -65 -102.5 -129.5t-37.5 -89.5t50.5 -62t107.5 -64q249 -109 384 -276t99 -322q-20 -88 -94 -161t-178 -114.5t-230 -55.5t-250 17 q-24 6 -59.5 11.5t-56.5 9t-49 13t-48 23.5t-43 40t-43 63q-15 28 -26 58t-18 54.5t-9.5 60.5t-3.5 58.5t2 66.5t5 66t8 76t8 79q26 265 19 565q-7 234 37.5 321t157.5 62q27 -6 100 -4.5t145 9.5q32 4 68 4z"></glyph>
      <glyph glyph-name="C" unicode="C" d="M568 1592q52 4 106 -25q89 -48 75 -88t-130 -70q-155 -41 -270.5 -222t-131.5 -411q-5 -70 -7 -102t2 -72t9.5 -56t26 -45t41 -47.5t63.5 -56.5q140 -122 312.5 -135.5t334.5 85.5q160 98 200 75q20 -11 20 -52q0 -48 -51 -96t-131.5 -83.5t-179.5 -60.5t-195 -26.5 t-178 18.5q-108 30 -201.5 105.5t-163.5 188.5q-100 161 -72.5 376.5t179.5 472.5q95 161 178.5 241t163.5 86z"></glyph>
      <glyph glyph-name="D" unicode="D" d="M438 1462q-24 4 -51 -1q-147 -30 -173 -265q-14 -136 12 -442q1 -13 4 -39q2 -25 3 -37q7 -80 12.5 -129.5t15.5 -94t19 -65.5t28 -33t37.5 -8.5t52 20.5t67.5 41.5t87 65.5q98 76 156 139t87 131.5t27.5 139.5t-29.5 164q-44 147 -151.5 270.5t-203.5 142.5zM341 1626 q41 2 84 -6q61 -11 104 -27q257 -95 397 -465q107 -283 -19 -503.5t-529 -457.5q-151 -89 -188.5 -99t-58.5 31q-19 36 -46 542q-27 501 -42 643q-16 151 68.5 245t229.5 97z"></glyph>
      <glyph glyph-name="E" unicode="E" d="M476 1601q169 -9 228.5 -29t67.5 -72q3 -20 0.5 -33t-16.5 -24t-36.5 -18t-64.5 -12.5t-95 -9t-135 -7.5q-118 -5 -210 -2q25 -80 9 -224q-11 -101 -5.5 -171.5t25.5 -85.5q19 -14 100 -11t178 22q111 22 157 24t62 -13t16 -60q0 -51 -36 -79.5t-122 -45.5 q-209 -43 -299.5 -102.5t-90.5 -154.5q0 -84 42 -146t113 -93t169.5 -30t206.5 38q190 65 231 14q56 -69 -40 -126q-110 -66 -358 -85q-57 -4 -83.5 -6.5t-66 -3.5t-54.5 -1.5t-42.5 4.5t-35.5 7.5t-29 15t-27.5 20.5t-25 29.5t-28.5 36t-32 47.5q-27 39 -39 57t-28 51.5 t-21 48t-11.5 58.5t-6.5 70.5t1.5 95.5t5 122.5t9.5 162.5q2 37 11.5 112t15.5 136.5t8 128.5t-10 115.5t-39 70.5q-25 83 93 126.5t338 31.5z"></glyph>
      <glyph glyph-name="F" unicode="F" d="M393 1591q197 4 369.5 -19t172.5 -62q0 -43 -175 -81.5t-323 -38.5q-76 0 -111.5 -61.5t-35.5 -194.5q0 -104 57.5 -156t155.5 -37q140 21 223.5 29t132 2.5t63 -22.5t8.5 -50q-11 -66 -92.5 -90t-302.5 -28q-58 -1 -93.5 -12t-61.5 -39.5t-34.5 -77t-12 -125.5t5.5 -185 q8 -98 4 -154t-17.5 -77t-45.5 -28q-39 -8 -58 13.5t-22 79.5q-5 109 -20 227q-13 108 -32 476q-8 149 -26.5 282.5t-37.5 172.5q-25 51 -34 73t-8 46.5t12 39t39 46.5q41 46 300 51z"></glyph>
      <glyph glyph-name="G" unicode="G" d="M791 1530q22 0 47 -5q36 -9 42.5 -43.5t-18 -76t-69.5 -68.5q-121 -26 -221.5 -83t-166 -130t-110 -158t-60.5 -170.5t-10.5 -165t32.5 -142.5q33 -75 78 -128t104.5 -84t138 -25t168.5 52q69 35 119 86t73.5 105t21.5 109.5t-28.5 100.5t-85 76.5t-140.5 38.5 q-79 7 -115.5 34.5t-19 59.5t81.5 54q58 20 106 28.5t101 6t98.5 -29t79.5 -77.5q43 -65 63 -171t14.5 -214.5t-27.5 -204t-64.5 -150.5t-93.5 -43q-16 12 -41.5 14.5t-63.5 -5.5t-63 -15.5t-73 -22.5q-15 -5 -22 -7q-70 -22 -131.5 -23t-115 17.5t-96.5 46t-91 69.5 q-29 25 -73.5 115t-75.5 176q-43 117 -43 193.5t42 218.5q45 153 168 304t271.5 244.5t268.5 92.5z"></glyph>
      <glyph glyph-name="H" unicode="H" d="M126 1639q22 4 39 -12t26.5 -55.5t15.5 -76t8.5 -99t3 -97.5t0.5 -97v-6q0 -28 -0.5 -65.5t-0.5 -53t0.5 -38.5t4.5 -32.5t10 -22.5t17 -20.5t25.5 -16t36.5 -17.5q93 -40 199 -50t191 12t120 69q15 21 23 113t11.5 228.5t4.5 159.5q2 40 14 62t24 26t29.5 4.5t22.5 2.5 q20 8 41.5 -165.5t45.5 -500.5q17 -228 24 -382.5t6 -242.5t-11.5 -133.5t-23 -57.5t-34.5 -12q-24 0 -55.5 35.5t-40.5 78.5q-24 109 -24 284q0 72 -14 135t-34 78q-35 27 -162.5 37.5t-251.5 0t-150 -36.5q-19 -19 -33.5 -146t-14.5 -226q0 -123 -25 -165.5t-71 -31.5 q-42 10 -54.5 154.5t-13.5 544.5q-1 417 14 620.5t57 213.5z"></glyph>
      <glyph glyph-name="I" unicode="I" d="M95 1574q9 1 22 -2q25 -5 39 -22t23 -69.5t12.5 -132t5.5 -228.5q1 -87 -4 -247t-4.5 -266.5t11.5 -145.5q31 -115 28 -208.5t-29 -153t-63 -59.5q-24 7 -42 50t-28 124.5t-16 160.5t-7.5 203t-1.5 204t1.5 212t1.5 182q0 248 8.5 321.5t42.5 76.5z"></glyph>
      <glyph glyph-name="J" unicode="J" d="M734 1588q109 5 156 -13.5t74 -73.5q39 -80 55.5 -532.5t-14.5 -586.5q-26 -112 -113.5 -202t-204 -129.5t-224.5 -12.5q-65 16 -145.5 53.5t-127.5 72.5q-127 95 -146 163q-13 45 32 51q70 9 209 -84q2 -2 4 -3q217 -147 362.5 -99.5t201.5 282.5q28 121 13.5 491 t-49.5 428q-32 53 -226 27q-123 -16 -180.5 -16t-82 16t-30.5 58q-5 32 55 54.5t194 38.5q99 12 187 17z"></glyph>
      <glyph glyph-name="K" unicode="K" d="M98 1619q34 0 51 -52.5t23 -173.5q22 -453 95 -453q10 0 76.5 82.5t152 191.5t121.5 147q67 73 129 124.5t82 51.5q59 0 50 -63q-11 -77 -108 -185q-21 -23 -45 -46q-88 -84 -228.5 -265.5t-129.5 -215.5q15 -49 376 -281q294 -190 301 -276q4 -35 -45 -48 q-27 -7 -124 41t-205 122q-251 171 -320 198q-57 22 -74 -13q-9 -20 -16 -113q-1 -5 -1 -9q-23 -289 -46 -327q-16 -25 -45 1q-47 43 -64 166q-20 69 -37 359t-24 635q-2 123 -1.5 201t7 123t18 61.5t31.5 16.5z"></glyph>
      <glyph glyph-name="L" unicode="L" d="M120 1561q24 0 49 -11q19 -9 25.5 -126t4 -278.5t0.5 -339.5q2 -132 4 -202t11 -149t16 -112t32 -69t46 -44t70 -14.5t92.5 -1.5t124.5 15q287 37 331 -10q80 -88 -119 -120q-98 -16 -266 -19q-181 -3 -273 9.5t-132 45.5q-43 37 -61.5 156t-31.5 444q-6 137 2 334.5 t20.5 336t19.5 145.5q10 10 35 10z"></glyph>
      <glyph glyph-name="M" unicode="M" d="M1069 1582q65 15 132 -107t160 -409q46 -142 81.5 -282.5t55 -256.5t26 -207t-5 -141.5t-39.5 -50.5q-61 0 -133 338q-169 797 -262 797q-23 0 -75.5 -92t-103.5 -222t-106 -242t-81 -141q-74 -80 -150 -41t-128 183q-13 36 -36.5 117.5t-40.5 136t-25 54.5 q-16 1 -34 -54.5t-35 -153.5t-31.5 -201.5t-29.5 -226.5q-17 -146 -39 -199t-66 -53q-49 0 -58 37t7 166q29 232 92 661q17 115 27 181.5t23 124.5t22 83.5t24.5 44.5t30 22.5t39.5 3.5q44 0 69 -23.5t46.5 -83t52.5 -190.5q28 -123 66.5 -214.5t64.5 -97.5q29 -7 85.5 85.5 t128.5 265.5q79 188 137 282t109 106z"></glyph>
      <glyph glyph-name="N" unicode="N" d="M144 1594q57 9 157.5 -151.5t265.5 -512.5q113 -241 209.5 -415t120.5 -180q66 -17 100 99q43 148 42 548q-1 367 4 446q10 162 52 164q88 4 90 -689q0 -233 -33.5 -420.5t-93 -293t-134.5 -105.5q-26 10 -50.5 27.5t-38.5 32t-35.5 39t-31.5 34.5q-116 163 -474 926 q-40 86 -62 86q-33 -1 -39 -225q-3 -112 -2 -346q1 -121 -3.5 -209t-12.5 -138.5t-20.5 -79t-25 -36t-29.5 -3.5q-20 5 -30.5 29.5t-17.5 100t-9 192.5t-2 331q0 380 23 560t80 189z"></glyph>
      <glyph glyph-name="O" unicode="O" d="M499 1384q-23 -3 -50 -20t-75 -57q-82 -68 -132 -206.5t-57.5 -284t27.5 -282.5t110 -204q70 -63 181.5 -54.5t190.5 82.5q86 81 156 233.5t70 257.5q0 120 -91 271t-202 216q-51 29 -78 40t-50 8zM393 1579q71 5 162 -16q80 -18 195 -120t206.5 -232.5t109.5 -222.5 q22 -113 -16.5 -293t-109.5 -297q-62 -101 -151.5 -174.5t-183 -106.5t-187 -24.5t-163.5 63.5q-105 83 -162 264t-52.5 412t71.5 454q44 146 110 216t171 77z"></glyph>
      <glyph glyph-name="P" unicode="P" d="M425 1464q-57 -7 -110 -32t-75 -58q-41 -61 -45 -205.5t31 -242.5q10 -29 20 -49t30 -44.5t43.5 -34.5t61.5 -6.5t84 27.5q71 37 140 94t95 100q25 42 45.5 97.5t25.5 90.5q11 86 -76 163t-200 99q-30 6 -70 1zM426 1617q37 2 88 -1q151 -12 263 -89t140 -197 q19 -83 -5 -186t-80.5 -195t-127.5 -166.5t-153 -111t-150 -18.5q-53 18 -81.5 16.5t-37 -34.5t-5.5 -129q4 -124 -42 -356q-7 -35 -31 -45t-48 8t-33 56q-5 21 -41 615q-29 470 -39 566q-8 72 15 110t102 81q123 68 266 76z"></glyph>
      <glyph glyph-name="Q" unicode="Q" d="M578 1390q-60 0 -126 -30q-116 -53 -179.5 -191.5t-62.5 -331.5q3 -359 214 -490q93 -58 133.5 -60.5t117.5 43.5q86 52 75 137t-125 246q-77 110 -94 159.5t13 82.5q30 32 69.5 5t121.5 -135q90 -120 127.5 -141.5t80.5 18.5q70 65 61.5 149.5t-103.5 264.5 q-144 274 -323 274zM571 1571q82 0 161 -38q117 -55 197 -151t157 -272q48 -111 54.5 -190.5t-19.5 -241.5q-15 -95 -20.5 -142.5t0.5 -90t21 -67.5t49 -65q38 -45 64.5 -93.5t26.5 -71.5q0 -48 -47 -54q-52 -7 -107 37q-29 24 -47 56q-14 25 -22.5 38t-21.5 22.5 t-23.5 10.5t-32.5 -4t-43.5 -14.5t-61.5 -28.5q-121 -56 -239 -64t-217 29.5t-178 120t-123 201.5q-45 121 -54.5 252.5t12.5 248.5t71 223t116 183t152 121.5t175 44.5z"></glyph>
      <glyph glyph-name="R" unicode="R" d="M414 1442q-72 2 -129.5 -42t-87.5 -139q-19 -68 -20.5 -126.5t12.5 -99.5t42 -65t65.5 -27t85.5 18t100 67q223 197 87 362q-77 51 -155 52zM475 1591l30 -6t31.5 -6.5t29 -6.5t32 -8.5t29.5 -10t32 -13.5t28.5 -16t31 -20t28.5 -24q63 -91 38 -220t-129 -250 q-50 -58 -88 -118.5t-41 -87.5t48.5 -130.5t126.5 -220.5q157 -245 157 -323q0 -49 -54 -60q-17 -3 -88 81t-153 204q-165 240 -194 277q-69 90 -97 76q-30 -16 -37 -169q-4 -90 -8 -150.5t-12.5 -139t-23.5 -120.5t-35 -44q-43 -4 -56.5 49.5t-11.5 223.5q1 126 -7.5 349.5 t-19.5 334.5q-12 119 -17.5 230t-1.5 149q6 57 73.5 99.5t163 60t195.5 10.5z"></glyph>
      <glyph glyph-name="S" unicode="S" d="M670 1569q16 0 34 -7q93 -37 10 -111q-48 -43 -157 -103q-199 -110 -282 -210.5t-40 -178.5q18 -32 114 -103t212 -139q80 -47 136.5 -82t103.5 -68t75.5 -60t48.5 -52.5t27.5 -51.5t7.5 -52.5t-7 -58.5q-12 -52 -67 -94.5t-137 -67t-175 -33.5t-191 5.5t-176 51.5 q-87 41 -113 98q-21 47 15 66q26 14 74 6q187 -31 321 -34t193.5 16.5t59.5 53.5q0 28 -73 85.5t-176 111.5q-229 119 -348 235t-119 220q0 67 72 166t171 185t208.5 147t177.5 59z"></glyph>
      <glyph glyph-name="T" unicode="T" d="M298 1559q51 2 182 0q148 -3 263 -17t129 -31q24 -35 12.5 -62t-58 -42t-108.5 -9q-63 7 -100 -9.5t-56 -59.5q-20 -47 -24 -431t9 -760q1 -17 -19.5 -31t-48.5 -17q-38 -5 -56.5 26t-23.5 107q-4 57 -8.5 263.5t-4.5 312.5q0 111 -0.5 175.5t-3.5 132.5t-9.5 104 t-16.5 71.5t-27 54.5t-38.5 34t-52.5 27q-19 7 -59.5 17.5t-66.5 18t-48.5 25.5t-22.5 43q6 49 257 57z"></glyph>
      <glyph glyph-name="U" unicode="U" d="M117 1592q15 0 26 -8t18.5 -27.5t12.5 -40t8.5 -56.5t5.5 -65t5 -79t6 -86q36 -444 96 -675.5t139 -231.5q61 0 117 123.5t90.5 302t47.5 371.5q14 209 33.5 304.5t53.5 95.5q47 0 66.5 -114t9 -287t-37.5 -356.5t-76 -342.5t-104 -226q-143 -175 -314 -42 q-63 36 -115 119t-83.5 186.5t-50 204t-24.5 192.5q-8 165 -3.5 329t25 286.5t48.5 122.5z"></glyph>
      <glyph glyph-name="V" unicode="V" d="M853 1551q86 -36 -89 -664q-27 -97 -80 -337t-59 -263q-19 -71 -43.5 -114.5t-52 -58.5t-48.5 -18t-50 0t-40 2q-36 52 -129 397t-164 677.5t-54 353.5q40 51 79 -2q55 -74 162 -449q6 -20 12 -42q30 -107 74 -276q56 -213 77 -251q18 -35 38 -16q22 21 42.5 117.5 t20.5 134.5q0 68 65 271.5t139.5 375.5t99.5 162z"></glyph>
      <glyph glyph-name="W" unicode="W" d="M1310 1581q41 -1 45 -127t-23 -477q-35 -451 -95.5 -648t-167.5 -211q-56 -8 -104.5 56.5t-136.5 259.5q-211 472 -268 236q-13 -53 -17 -143q-5 -109 -9.5 -174.5t-11 -121t-13.5 -81t-19.5 -43.5t-26.5 -21.5t-37 -2.5q-34 2 -64 15.5t-38 32.5q-43 96 -170 666.5 t-112 598.5q38 71 89 35q58 -42 92 -190q2 -10 4 -21q8 -38 25.5 -134t31.5 -169t31 -152.5t32 -124t26 -43.5q9 0 19 61.5t20 139.5t15 99q37 156 126 161q93 5 207 -154q59 -83 115 -202q53 -113 105.5 -194t72.5 -82q33 -2 57 58t39.5 183t23.5 311q12 308 44.5 457 t92.5 146z"></glyph>
      <glyph glyph-name="X" unicode="X" d="M73 1551q72 -4 217 -294q33 -66 61.5 -100t56 -40t56 21t58 80.5t64.5 141.5q55 127 106.5 162t93.5 -24q10 -13 -38 -135.5t-105 -246.5q-47 -103 -82.5 -198t-36.5 -125q-2 -35 39 -161.5t93 -222.5q56 -104 95.5 -195t38.5 -114q-3 -69 -53 -53q-61 20 -147 144 q-23 32 -45 70l-129 305l-119 -211q-41 -74 -86.5 -130t-77 -79t-43.5 -14q-9 7 -13 26t0 54t16.5 81t39.5 112t66 141q24 67 35 98t19 75.5t8 64.5t-8.5 68.5t-19.5 84t-36 113.5q-20 64 -70 194t-73 205.5t-8 91.5q12 12 27 10z"></glyph>
      <glyph glyph-name="Y" unicode="Y" d="M105 1588q28 8 74.5 -44.5t133.5 -192.5q61 -97 105 -158.5t83.5 -99t68 -45t56 12.5t50.5 64t49 118q30 86 70.5 161.5t67.5 94.5q83 59 80 -43t-92 -344q-46 -123 -96 -307.5t-76 -320.5q-55 -295 -125 -402q-48 -74 -79 -9q-10 23 0 137.5t35 254.5q11 59 16.5 90 t11.5 72.5t8.5 59.5t3.5 45.5t-0.5 37.5t-6 28t-9.5 25t-16 20.5t-21 21.5t-27 23q-52 43 -158 189.5t-190 287t-81 169.5q2 15 20.5 31t43.5 23z"></glyph>
      <glyph glyph-name="Z" unicode="Z" d="M512 1470q135 0 180.5 -17.5t54.5 -73.5q17 -103 -50 -264t-236 -425q-84 -131 -137.5 -236t-44.5 -122t117.5 -19t252.5 12q189 19 275.5 13t103.5 -38q13 -25 11.5 -55t-16.5 -46q-15 -17 -153 -36.5t-300.5 -30.5t-306.5 -14.5t-172 12.5q-80 41 -32.5 180.5 t234.5 418.5q78 116 125 190t84 143.5t47 109.5t3 74t-36.5 51.5t-81.5 28.5q-21 4 -115.5 11.5t-152.5 22.5t-55 44q2 24 36.5 38.5t102.5 20t111 6.5t121 1h30z"></glyph>
      <glyph glyph-name="bracketleft" unicode="[" d="M408 1899q113 1 146 -14.5t33 -68.5q0 -50 -28 -67.5t-111 -17.5q-57 0 -113 -14.5t-77 -35.5q-46 -46 -48.5 -376.5t40.5 -774.5q13 -134 25 -217t34.5 -152t48 -103.5t73 -58.5t101.5 -30.5t141 -6.5q157 0 226 -43q48 -32 13 -67q-27 -27 -141 -37t-240.5 0.5 t-186.5 37.5v1q-46 21 -76.5 42.5t-57.5 59.5t-43 84t-32 127t-27.5 175.5t-25.5 241.5q-57 602 -34 908.5t131 374.5q21 13 88.5 22.5t140.5 9.5z"></glyph>
      <glyph glyph-name="backslash" unicode="\" d="M121 1734q43 0 75 -42.5t61 -137.5q22 -74 139.5 -324.5t259.5 -527.5q345 -674 345 -712q0 -17 -17.5 -35.5t-42.5 -27.5q-21 -8 -65 48.5t-115.5 183t-174.5 329.5q-220 436 -382.5 796t-162.5 413q0 15 23.5 26t56.5 11z"></glyph>
      <glyph glyph-name="bracketright" unicode="]" d="M162 1912q49 0 106 -4q150 -9 204 -31q75 -29 107 -115q39 -108 43 -418q2 -142 -2 -493q-8 -629 -22 -760t-84 -201q-73 -73 -186 -94q-99 -18 -142 18q-24 20 -17 54q6 31 37 56t69 30q37 5 75.5 24t55.5 40q16 21 34 262t27 562q13 344 10 524t-16 235t-52 94 q-36 36 -99 57.5t-131 21.5q-90 0 -117 15t-18 59q7 35 32 49t86 15z"></glyph>
      <glyph glyph-name="asciicircum" unicode="^" d="M348 1803q73 7 162.5 -64t172.5 -204q131 -207 94 -274q-8 -15 -15.5 -21.5t-19 -5.5t-24 9.5t-32.5 28.5t-43.5 48t-57.5 71q-65 81 -123.5 140.5t-77.5 61.5q-22 3 -74 -56t-98 -134.5t-51 -116.5q-2 -19 -22 -30t-46 -8q-28 4 -42 32t-8 70q8 55 58 155.5t111 186 t96 101.5q18 8 40 10z"></glyph>
      <glyph glyph-name="underscore" unicode="_" d="M1193 -52q61 -4 83.5 -15t22.5 -32q0 -38 -186 -76.5t-413 -59t-425.5 -17t-220.5 39.5q-31 50 16 75q69 37 404 59q93 6 225 12q395 20 494 14z"></glyph>
      <glyph glyph-name="grave" unicode="`" d="M100 1797q29 0 96 -76t123 -167.5t56 -131.5q0 -67 -42 -63q-56 4 -146 119q-11 14 -22 29q-210 290 -65 290z"></glyph>
      <glyph glyph-name="a" unicode="a" d="M580 641q-44 0 -137.5 -79.5t-170 -177.5t-76.5 -143q0 -64 57 -63q74 2 185 100q35 31 69 68q180 199 143 267q-16 28 -70 28zM848 855q42 -2 78 -29t44 -69q14 -71 63 -369q44 -267 73 -390q16 -68 7 -92t-50 -24q-28 0 -58.5 28t-45.5 67q-37 97 -68 243 q-31 147 -53 184q-6 10 -38 -11t-81 -66.5t-104 -104.5q-97 -106 -146 -146.5t-93.5 -52.5t-122.5 -6q-99 8 -137.5 32.5t-63.5 94.5q-15 52 -7.5 113t40.5 127t78 129t104.5 118t120 95t124.5 60t118 12q49 -7 89.5 -1.5t49.5 19.5q25 41 79 39z"></glyph>
      <glyph glyph-name="b" unicode="b" d="M532 812q-53 -1 -165 -38t-128 -69q-26 -58 -24.5 -148.5t18 -175.5t33.5 -113q24 -43 82 -40t185 56q81 34 138.5 92.5t80.5 122.5t11 131t-63 118q-67 67 -168 64zM104 1425q26 1 43.5 -26t27 -87t13 -99.5t8.5 -115.5q1 -22 2 -32q2 -28 3 -63.5t1.5 -58.5t2 -44.5 t5 -32t9.5 -10.5q37 0 177 80q165 95 284 46t201 -245q50 -120 20 -259t-125 -224q-57 -51 -289 -145.5t-300 -94.5q-22 0 -48.5 27.5t-41.5 66.5t-30 221t-22 401q-20 691 59 695z"></glyph>
      <glyph glyph-name="c" unicode="c" d="M426 885q64 5 112 -30q68 -50 40 -100t-124 -50q-70 0 -130.5 -46t-93 -112.5t-33 -145.5t39.5 -140q59 -90 178.5 -101.5t285.5 57.5q58 24 107.5 34.5t59.5 0.5q53 -53 -38 -120q-92 -69 -255 -105q-192 -43 -301 3q-93 39 -161.5 148t-71.5 224q-3 110 57 221.5 t150.5 183t177.5 78.5z"></glyph>
      <glyph glyph-name="d" unicode="d" d="M543 679q-84 0 -171.5 -45.5t-135.5 -111t-27 -118.5q22 -55 48 -71.5t68.5 -1.5t118.5 67q48 33 98.5 86t72.5 94q35 65 22.5 83t-94.5 18zM745 1383q51 0 71 -23q33 -38 49 -213q12 -131 31 -550q9 -209 11.5 -330.5t-2.5 -198t-17 -102.5t-35 -26q-30 0 -60 23.5 t-44 57.5q-13 34 -22.5 101.5t-9.5 130.5q0 116 -13 133q-15 20 -67 -27q-28 -25 -114 -114q-57 -59 -111.5 -92.5t-106.5 -42.5t-97.5 -3t-96.5 25q-64 80 -69 183.5t38.5 195.5t130 168.5t194.5 106.5l260 33v282q0 164 16.5 223t63.5 59z"></glyph>
      <glyph glyph-name="e" unicode="e" d="M550 814q-42 6 -105 -17t-127 -73q-56 -45 -86 -116t-29 -150q30 28 91 56q243 133 291 228q26 53 -20 69q-7 2 -15 3zM567 979q85 0 135 -69t52 -161q1 -41 -101.5 -135t-220 -171t-158.5 -77q-34 0 -61 10q21 -98 83 -160q68 -68 182.5 -70.5t376.5 59.5 q100 24 107 -13q6 -34 -71 -91q-41 -31 -97 -59q-131 -66 -263 -69t-245 58q-108 59 -170 155t-72.5 199.5t21 210.5t98 191.5t173 138t231.5 53.5z"></glyph>
      <glyph glyph-name="f" unicode="f" d="M390 1054q44 3 93 -24q49 -26 66.5 -83.5t4.5 -113t-54 -98t-97 -42.5q-79 0 -128.5 -65.5t-36.5 -153.5q3 -24 7.5 -38t17 -26.5t28.5 -19t50 -12t72 -8t104 -5.5q87 -4 135.5 -9t78 -15t36.5 -23.5t3 -36.5q-8 -42 -60.5 -57t-198.5 -17q-246 -5 -286 -64 q-17 -26 -21.5 -130.5t5.5 -235.5q8 -103 10.5 -158.5t-2.5 -91t-16 -46t-33 -10.5q-27 0 -55.5 21.5t-41.5 52.5t-21.5 181.5t-8.5 334.5q0 278 18.5 405.5t81.5 280.5q64 154 123.5 228.5t125.5 78.5z"></glyph>
      <glyph glyph-name="g" unicode="g" d="M591 724q-66 -3 -147.5 -49t-139.5 -112.5t-58 -121.5q0 -32 27.5 -52t73 -24t98 2.5t107.5 28.5t96 55q61 47 89 102t16.5 100t-60.5 64q-10 4 -47 6t-55 1zM918 976q20 -1 33 -12.5t21 -42.5t12 -71.5t4 -112t-2.5 -149t-8.5 -197.5q-9 -175 -19.5 -296t-30 -222.5 t-44 -166t-64.5 -118t-88.5 -88t-118.5 -66.5q-145 -66 -240.5 -76.5t-162.5 32.5q-61 38 -31 78q33 43 141 52q19 1 39 1q85 0 147.5 30.5t144.5 112.5q71 71 98 114.5t36.5 101.5t9.5 184q0 74 -2.5 118.5t-11.5 77.5t-21.5 45t-38.5 10.5t-56.5 -15.5t-80.5 -42 q-44 -25 -121 -43t-141 -19q-94 -1 -141 21t-89 88q-16 25 -24 44t-12.5 51t7 73t39.5 92q66 120 220 216t295 105q26 2 65.5 -16.5t73.5 -32.5t54 -3q18 10 40.5 46t40 66t28.5 30z"></glyph>
      <glyph glyph-name="h" unicode="h" d="M94 1379q26 -3 47 -14q58 -27 66 -327q3 -123 14 -212t23 -90q26 -2 199 70q70 35 120 41t81 -11t59 -57q75 -82 150 -313.5t66 -351.5q-4 -48 -22.5 -74.5t-47.5 -24.5q-26 2 -43 20t-16 42q4 49 -68 284t-104 278q-35 48 -121 12.5t-131 -116.5q-23 -42 -43.5 -120.5 t-25.5 -145.5q-5 -69 -17.5 -135t-24.5 -92q-21 -46 -57.5 -56.5t-71 16.5t-51.5 82q-26 84 -33 676t18 614q10 8 34 5z"></glyph>
      <glyph glyph-name="i" unicode="i" d="M96 765q12 1 28 -4q39 -14 58.5 -77t15.5 -166q-3 -80 -3 -231.5t3 -196.5q4 -61 -8.5 -82t-50.5 -14q-67 11 -67 22q0 5 -3.5 74.5t-9.5 176.5t-12 179q-10 122 -5 213.5t22 98.5q11 5 32 7zM127 1037q31 -5 50.5 -23t15.5 -37q-8 -47 -56 -64.5t-73 17.5 q-35 50 -15 83.5t78 23.5z"></glyph>
      <glyph glyph-name="j" unicode="j" d="M143 789q17 -3 39 -35q35 -93 36 -248.5t-26 -315.5t-76.5 -312t-108.5 -240q-70 -103 -157 -142q-75 -33 -107 7q-15 19 -15 54t22.5 66.5t54.5 41.5q108 34 177 203.5t79 498.5q13 433 82 422zM119 1097q67 0 83 -50.5t-33 -109.5q-35 -41 -85.5 -6t-50.5 100 q0 27 25 46.5t61 19.5z"></glyph>
      <glyph glyph-name="k" unicode="k" d="M140 1402q30 -3 43.5 -76.5t13.5 -234.5q0 -127 9.5 -228t22.5 -117q14 -16 75.5 -6.5t136.5 38.5q186 73 232 61q33 -8 28 -60q-2 -26 -55.5 -65t-125.5 -67q-73 -28 -126.5 -66.5t-55.5 -63.5t66.5 -83t168.5 -116q126 -73 182 -124.5t52 -92.5q-5 -55 -52 -52 q-66 5 -290 145q-124 77 -180 71t-65 -98q-6 -62 -30 -86.5t-52.5 -2.5t-45.5 83q-26 93 -39.5 253t-12 328t12.5 319.5t34.5 247.5t52.5 93z"></glyph>
      <glyph glyph-name="l" unicode="l" d="M90 1462q22 8 58 -47q22 -34 57 -642.5t22 -723.5q-3 -25 -36 -27t-67 17t-40 47q-12 58 -35 686q-13 341 -3.5 509t44.5 181z"></glyph>
      <glyph glyph-name="m" unicode="m" d="M580 959v-1q40 -3 80 -26q51 -29 76.5 -81t33.5 -146q7 -80 26.5 -128t47.5 -50q31 8 61 31t49.5 46.5t45.5 56.5t41 49q124 116 210 92.5t141 -187.5q70 -204 90 -391t-24 -223q-42 -35 -62 -19q-27 21 -59 179q-9 46 -23 121q-49 269 -126 286.5t-210 -209.5 q-98 -168 -167 -215t-110.5 26t-57.5 268q-22 276 -74 301q-27 13 -66 -27q-59 -59 -122.5 -209.5t-49.5 -228.5q8 -44 -12 -106t-54 -105.5t-63 -41.5q-14 2 -35.5 19t-37.5 40q-24 34 -46 170.5t-33 284.5t-9 270.5t22 132.5q53 28 81 -5.5t42 -140.5q5 -61 15.5 -95 t24 -43.5t33 3.5t41 40.5t50.5 74.5q64 102 118.5 146.5t111.5 40.5z"></glyph>
      <glyph glyph-name="n" unicode="n" d="M120 920q25 1 45 -36.5t29 -105.5q19 -142 63.5 -151t122.5 112q73 115 178.5 144.5t199.5 -37.5q45 -31 111 -180.5t113 -318.5t42 -250q-6 -112 -47 -110q-37 1 -80 96q-29 64 -50 154q-62 266 -128 377.5t-144 81.5q-74 -28 -120 -120t-100 -320q-34 -143 -60.5 -185 t-84.5 -43q-54 -1 -78.5 28.5t-39.5 113.5q-37 209 -48 428t14 265q30 57 62 57z"></glyph>
      <glyph glyph-name="o" unicode="o" d="M420 793q-20 -3 -43 -20.5t-65 -56.5q-95 -89 -107.5 -238t65.5 -260q58 -82 143 -89.5t214 59.5q70 36 109 90t42 116t-22 126t-84 125.5t-143 109.5q-77 44 -109 38zM375 958q91 0 237 -70q109 -52 165.5 -110.5t104.5 -167.5q77 -175 53 -289.5t-160 -218.5 q-269 -205 -515 -80q-113 57 -170 168.5t-48.5 256t82.5 296.5q54 111 112.5 162.5t138.5 52.5z"></glyph>
      <glyph glyph-name="p" unicode="p" d="M502 763q-26 2 -61.5 -5t-79.5 -27.5t-80 -51.5t-61 -85t-25 -122q2 -128 30.5 -211.5t82 -117.5t135 -11t185.5 106q56 45 98.5 97.5t45.5 80.5q4 34 -13.5 89t-49.5 111.5t-87.5 99.5t-119.5 47zM447 904q34 0 72 -5q96 -14 177.5 -62.5t132.5 -121.5t73.5 -158.5 t4.5 -181.5t-77 -182q-61 -88 -182.5 -141.5t-231.5 -41.5q-124 13 -170 -57t-23 -237q13 -94 17 -154.5t-1 -98t-19 -52t-39 -11.5q-22 2 -50.5 83.5t-47.5 192.5t-31 308t-11 361q1 94 3 155.5t9 120t16 92.5t28 66t40 48t58 31.5t76.5 23.5t99.5 16q39 6 76 6z"></glyph>
      <glyph glyph-name="q" unicode="q" d="M546 662q-48 6 -100.5 -12t-96 -50.5t-78 -76t-52 -87.5t-13.5 -87t33 -72q40 -40 138.5 -25t163.5 71q36 31 65.5 89.5t34.5 110.5q8 81 -9 106t-86 33zM688 857q59 5 105 0q63 -6 77 -28q13 -21 23 -226.5t11 -469.5q2 -447 24 -574q19 -112 70 -129q37 -12 119 19 q37 14 118.5 28.5t157.5 20.5q111 8 150.5 -4t48.5 -56q9 -43 -14.5 -58t-100.5 -15q-120 0 -261 -56t-199 -127q-50 -60 -108 -67t-89 43q-12 19 -27 164.5t-24 330.5q-18 367 -51 462q-26 74 -79 61q-25 -7 -63 -33q-68 -47 -164 -60t-181 11.5t-123 79.5 q-53 76 -64 160.5t18 163t97.5 150t168.5 121.5q68 34 168 58t192 30z"></glyph>
      <glyph glyph-name="r" unicode="r" d="M602 913q20 -1 35 -10q115 -65 38 -113q-40 -25 -130 -42q-53 -10 -95 -26.5t-71.5 -41t-51 -50t-35.5 -62t-22 -68t-13 -77.5t-7 -80t-4.5 -86t-5.5 -87q-11 -135 -59 -167q-42 -28 -84 47q-12 21 -23 49q-17 45 -27 214.5t-4 256.5q1 21 3 54t3.5 54.5t3.5 50.5t5 48.5 t7 42t9.5 36t13 26t17.5 18.5t22 6q13 0 25 -18t21 -42t17.5 -47t17.5 -35.5t18 -4.5q76 63 191.5 112t184.5 42z"></glyph>
      <glyph glyph-name="s" unicode="s" d="M425 1135q28 -3 47 -22q23 -23 26 -54t-10.5 -57.5t-41.5 -45.5t-62 -19q-33 0 -69.5 -16.5t-56.5 -39.5q-47 -56 9.5 -122t241.5 -171q147 -83 231 -202t70.5 -216.5t-125.5 -124.5q-31 -7 -96.5 -5t-126.5 13q-161 29 -246 81.5t-63 110.5q11 30 36.5 40t56.5 -3 q265 -109 346 -59q75 47 -73 169q-90 74 -252 166q-133 75 -179.5 122t-46.5 108q0 73 68.5 160t160 141t155.5 46z"></glyph>
      <glyph glyph-name="t" unicode="t" d="M295 1364q20 -7 41 -48t30 -92q14 -81 48 -105.5t151 -40.5q72 -10 132.5 -25t71.5 -26q42 -42 -13 -77q-63 -38 -198 -38q-173 0 -230.5 -64t-34.5 -233q21 -159 91 -268t150 -109q34 0 85 36t89 88q88 118 133 96q30 -14 30 -92q0 -51 -73.5 -133t-170 -144t-157.5 -62 q-47 0 -93 28t-77 75q-66 102 -115.5 257t-49.5 270q0 7 13.5 108.5t7.5 117.5q-4 12 -28.5 19.5t-53.5 12t-35 6.5q-35 13 -49.5 37t-9 47t32 41t66.5 21q95 -4 115 18q10 16 2.5 58.5t-15.5 50.5q-19 19 -0.5 64t54 80t60.5 26z"></glyph>
      <glyph glyph-name="u" unicode="u" d="M183 913q58 -21 38 -235q-16 -167 36 -256.5t164 -89.5q73 0 160 108.5t115 233.5q16 74 41 97.5t78 15.5q27 -4 42.5 -14.5t29.5 -32t25 -74t21.5 -119.5t26.5 -189q22 -167 25.5 -225.5t-6.5 -76.5q-23 -60 -64 -55t-60 71q-13 49 -32 172q-5 30 -10 51.5t-10 37.5 t-12 23t-13 11.5t-16.5 -0.5t-18 -9.5t-22 -18.5t-25 -25t-30 -31t-34.5 -35q-39 -39 -101 -61.5t-129 -22.5q-87 0 -137.5 28t-114.5 112q-91 119 -106.5 287.5t55.5 265.5q51 69 84 56z"></glyph>
      <glyph glyph-name="v" unicode="v" d="M99 1045q32 -7 68 -90t96 -285q124 -420 198 -422q44 -1 71 149q3 15 5 31q15 97 35.5 191t43 171t45 135t43 87.5t36.5 24.5q46 -17 41 -106.5t-74 -470.5q-30 -166 -65.5 -292.5t-55.5 -139.5q-77 -49 -141 -16t-146 163q-68 107 -138 300.5t-103 357t-5 191.5 q25 25 46 21z"></glyph>
      <glyph glyph-name="w" unicode="w" d="M1219 972q22 4 46 -23q17 -19 19.5 -81t-8 -143.5t-30.5 -175t-45 -176t-54.5 -147t-55.5 -86.5q-85 -72 -183 -26t-183 197q-78 139 -120 139q-45 0 -79 -157q-11 -52 -23 -127q-8 -52 -40.5 -83.5t-70.5 -35.5t-75 20.5t-54 74.5q-33 102 -131 375q-44 122 -65 194 t-25 117t10.5 60t47.5 13q26 -2 66.5 -60t71.5 -139q51 -130 105 -163q41 -25 56 30q5 17 6 42q3 63 72 105t132 19q31 -11 84.5 -76.5t96.5 -145.5q96 -176 173 -196q50 -12 77 51q25 59 64 286q52 305 115 318z"></glyph>
      <glyph glyph-name="x" unicode="x" d="M700 1060q98 0 43 -156q-20 -56 -60 -136q-38 -74 -58.5 -120t-31.5 -94t-8.5 -79t20.5 -74t44.5 -81t74.5 -98q61 -77 104 -147.5t43 -94.5q0 -59 -42 -56q-59 4 -155 114q-13 15 -26 32q-207 260 -323 44q-48 -90 -114.5 -122.5t-110.5 11.5q-41 41 70 173 q109 129 104.5 239t-125.5 282q-132 187 -102 265q10 27 20.5 35t32 -4t50.5 -42t82 -92q63 -74 122 -126.5t77 -52.5t58 56t78 134t77.5 134t55.5 56z"></glyph>
      <glyph glyph-name="y" unicode="y" d="M138 842q31 0 45 -43t14 -137q0 -153 57.5 -253.5t159.5 -127.5q43 -11 103.5 20.5t117.5 88.5t106.5 135.5t70.5 153.5q31 108 103.5 148.5t131.5 -17.5q33 -33 -2.5 -268t-120.5 -542q-55 -198 -154 -407t-174 -284q-51 -51 -121 -65q-59 -13 -66 17q-1 3 -1 6 q0 11 42.5 88.5t101.5 174.5q58 96 112.5 216t86.5 220t45 177.5t-11 88.5q-16 10 -55 -0.5t-79 -35.5q-153 -96 -254.5 -93t-196.5 104q-51 55 -89 138t-54 167.5t-16 159.5t25.5 122.5t71.5 47.5z"></glyph>
      <glyph glyph-name="z" unicode="z" d="M279 950q165 -2 228 -41q152 -93 -59 -405q-60 -89 -95 -164t-25 -92t86 -29t173 -12q197 0 214 -33q5 -8 1 -19q-16 -48 -159.5 -72t-334.5 -10q-185 14 -238 57t-7 143q230 292 309 479q-11 19 -55 32t-94 13q-100 0 -133.5 29.5t1.5 87.5q12 18 64.5 27.5t123.5 8.5z "></glyph>
      <glyph glyph-name="braceleft" unicode="{" d="M533 2081q31 -4 43 -39.5t-0.5 -84t-47.5 -86.5q-48 -53 -65 -149.5t-22 -344.5q1 -107 -19 -191.5t-50.5 -137.5t-62 -95t-58 -87t-33.5 -91q-7 -45 4.5 -89t30.5 -75.5t35 -74.5t18 -86.5t-19 -110.5q-27 -70 -46.5 -147.5t-20.5 -117.5q-2 -121 67.5 -227t181 -157.5 t222.5 -23.5q66 17 108.5 -1t40 -56.5t-54.5 -76.5q-73 -53 -164.5 -52.5t-216.5 55.5q-224 98 -300 308.5t12 489.5q15 47 20.5 88.5t4.5 69.5t-10.5 60.5t-17 49.5t-23 47.5t-21.5 44.5q-34 74 -26.5 110.5t69.5 102.5q6 7 30 31t31.5 32.5t26.5 34.5t26 45t20 54.5 t17.5 72.5t9.5 90t5 116q2 234 19 341t68 193q35 59 75.5 106t62.5 55q15 6 30 4z"></glyph>
      <glyph glyph-name="bar" unicode="|" d="M256 1903q51 0 63 -20t-3 -80q-113 -449 -117 -1575q-1 -279 -4 -434.5t-10 -255.5t-18 -131.5t-31 -31.5q-25 0 -50 19t-35 46q-21 55 -3 946t42 990q24 101 51 306q19 138 40.5 179.5t74.5 41.5z"></glyph>
      <glyph glyph-name="braceright" unicode="}" d="M297 2116q46 0 87 -94.5t64.5 -251t22.5 -329.5q-1 -95 -0.5 -144.5t4.5 -101t9.5 -73t19.5 -48t29 -41t44 -37.5q66 -52 82 -92.5t-1 -109.5q-12 -47 -51 -94t-82 -67q-66 -30 -86 -63.5t-4 -88t75 -154.5q88 -149 63 -292.5t-157 -254.5q-53 -45 -100.5 -76.5 t-62.5 -31.5q-35 0 -94 -22q-24 -9 -50 -7t-38 14q-49 49 -20.5 95.5t117.5 66.5q107 23 180 110.5t73 192.5q0 39 -37 109.5t-89 129.5q-84 96 -108 157.5t6 105.5t123 83q254 107 61 242q-26 18 -40 31t-25 38t-14 49t-1.5 76.5t7 108t16.5 155.5q27 239 -41 437 q-49 146 -45 209t63 63z"></glyph>
      <glyph glyph-name="asciitilde" unicode="~" d="M332 1137q23 0 53 -7q47 -12 139.5 -75t174.5 -140q119 -111 218.5 -154.5t206 -30t248.5 85.5q97 49 144.5 58t75.5 -18q45 -45 -49 -119q-102 -81 -276 -135q-135 -42 -243 -41q-41 1 -96 15.5t-89 33.5q-84 48 -262 209q-57 51 -90 79t-66.5 49t-52.5 25t-44.5 -4 t-46 -25t-52.5 -49q-52 -52 -100 -64t-71 18t-7 91q22 86 106.5 143.5t178.5 54.5z"></glyph>
      <glyph glyph-name="exclamdown" unicode="¡"></glyph>
      <glyph glyph-name="cent" unicode="¢"></glyph>
      <glyph glyph-name="sterling" unicode="£"></glyph>
      <glyph glyph-name="yen" unicode="¥"></glyph>
      <glyph glyph-name="section" unicode="§"></glyph>
      <glyph glyph-name="copyright" unicode="©"></glyph>
      <glyph glyph-name="ordfeminine" unicode="ª"></glyph>
      <glyph glyph-name="guillemotleft" unicode="«"></glyph>
      <glyph glyph-name="uni00AD" unicode="­"></glyph>
      <glyph glyph-name="registered" unicode="®"></glyph>
      <glyph glyph-name="degree" unicode="°"></glyph>
      <glyph glyph-name="uni00B2" unicode="²"></glyph>
      <glyph glyph-name="uni00B3" unicode="³"></glyph>
      <glyph glyph-name="periodcentered" unicode="·"></glyph>
      <glyph glyph-name="uni00B9" unicode="¹"></glyph>
      <glyph glyph-name="ordmasculine" unicode="º"></glyph>
      <glyph glyph-name="guillemotright" unicode="»"></glyph>
      <glyph glyph-name="questiondown" unicode="¿" d="M359 1347q-38 0 -65 51t-27 123t27 123t65 51t65 -51t27 -123t-27 -123t-65 -51zM299 -48q-91 8 -174.5 92.5t-83.5 175.5q0 40 27 140t65 200t72 220.5t44 188.5q22 154 78 183q31 16 64 -17q43 -42 22.5 -182t-98.5 -331q-44 -107 -74.5 -212.5t-30.5 -147.5 q0 -72 40 -105t102 -17t120 77q104 109 161 97q40 -8 40 -76q0 -70 -106 -162t-219 -121q-24 -6 -49 -3z"></glyph>
      <glyph glyph-name="Agrave" unicode="À" d="M565 1370q-66 -17 -178 -303q-72 -186 -83 -282t40 -114q66 -17 150 -9.5t160.5 37t87.5 63.5q20 63 -19.5 262.5t-91.5 296.5q-22 42 -47 49q-9 3 -19 0zM579 1606q93 0 158.5 -123.5t134.5 -429.5q16 -72 25.5 -158t14.5 -140t13 -69q22 -42 29 -213t-5 -326t-38 -155 q-10 0 -13 0.5t-13 5t-16 17.5t-14.5 35t-16 61t-13.5 92l-45 286l-217 13q-219 13 -304.5 -68.5t-85.5 -302.5q0 -120 -13.5 -165.5t-49.5 -45.5q-63 0 -67 137q-7 238 17 405t101 406q237 738 418 738z"></glyph>
      <glyph glyph-name="Aacute" unicode="Á" d="M565 1370q-66 -17 -178 -303q-72 -186 -83 -282t40 -114q66 -17 150 -9.5t160.5 37t87.5 63.5q20 63 -19.5 262.5t-91.5 296.5q-22 42 -47 49q-9 3 -19 0zM579 1606q93 0 158.5 -123.5t134.5 -429.5q16 -72 25.5 -158t14.5 -140t13 -69q22 -42 29 -213t-5 -326t-38 -155 q-10 0 -13 0.5t-13 5t-16 17.5t-14.5 35t-16 61t-13.5 92l-45 286l-217 13q-219 13 -304.5 -68.5t-85.5 -302.5q0 -120 -13.5 -165.5t-49.5 -45.5q-63 0 -67 137q-7 238 17 405t101 406q237 738 418 738z"></glyph>
      <glyph glyph-name="Acircumflex" unicode="Â" d="M565 1370q-66 -17 -178 -303q-72 -186 -83 -282t40 -114q66 -17 150 -9.5t160.5 37t87.5 63.5q20 63 -19.5 262.5t-91.5 296.5q-22 42 -47 49q-9 3 -19 0zM579 1606q93 0 158.5 -123.5t134.5 -429.5q16 -72 25.5 -158t14.5 -140t13 -69q22 -42 29 -213t-5 -326t-38 -155 q-10 0 -13 0.5t-13 5t-16 17.5t-14.5 35t-16 61t-13.5 92l-45 286l-217 13q-219 13 -304.5 -68.5t-85.5 -302.5q0 -120 -13.5 -165.5t-49.5 -45.5q-63 0 -67 137q-7 238 17 405t101 406q237 738 418 738z"></glyph>
      <glyph glyph-name="Atilde" unicode="Ã" d="M565 1370q-66 -17 -178 -303q-72 -186 -83 -282t40 -114q66 -17 150 -9.5t160.5 37t87.5 63.5q20 63 -19.5 262.5t-91.5 296.5q-22 42 -47 49q-9 3 -19 0zM579 1606q93 0 158.5 -123.5t134.5 -429.5q16 -72 25.5 -158t14.5 -140t13 -69q22 -42 29 -213t-5 -326t-38 -155 q-10 0 -13 0.5t-13 5t-16 17.5t-14.5 35t-16 61t-13.5 92l-45 286l-217 13q-219 13 -304.5 -68.5t-85.5 -302.5q0 -120 -13.5 -165.5t-49.5 -45.5q-63 0 -67 137q-7 238 17 405t101 406q237 738 418 738z"></glyph>
      <glyph glyph-name="Adieresis" unicode="Ä" d="M565 1370q-66 -17 -178 -303q-72 -186 -83 -282t40 -114q66 -17 150 -9.5t160.5 37t87.5 63.5q20 63 -19.5 262.5t-91.5 296.5q-22 42 -47 49q-9 3 -19 0zM579 1606q93 0 158.5 -123.5t134.5 -429.5q16 -72 25.5 -158t14.5 -140t13 -69q22 -42 29 -213t-5 -326t-38 -155 q-10 0 -13 0.5t-13 5t-16 17.5t-14.5 35t-16 61t-13.5 92l-45 286l-217 13q-219 13 -304.5 -68.5t-85.5 -302.5q0 -120 -13.5 -165.5t-49.5 -45.5q-63 0 -67 137q-7 238 17 405t101 406q237 738 418 738z"></glyph>
      <glyph glyph-name="Aring" unicode="Å" d="M565 1370q-66 -17 -178 -303q-72 -186 -83 -282t40 -114q66 -17 150 -9.5t160.5 37t87.5 63.5q20 63 -19.5 262.5t-91.5 296.5q-22 42 -47 49q-9 3 -19 0zM579 1606q93 0 158.5 -123.5t134.5 -429.5q16 -72 25.5 -158t14.5 -140t13 -69q22 -42 29 -213t-5 -326t-38 -155 q-10 0 -13 0.5t-13 5t-16 17.5t-14.5 35t-16 61t-13.5 92l-45 286l-217 13q-219 13 -304.5 -68.5t-85.5 -302.5q0 -120 -13.5 -165.5t-49.5 -45.5q-63 0 -67 137q-7 238 17 405t101 406q237 738 418 738z"></glyph>
      <glyph glyph-name="AE" unicode="Æ" d="M522 1202q-32 0 -70 -32.5t-67.5 -80.5t-50 -99t-20 -94t24.5 -58q51 -32 76.5 -33.5t118.5 23.5q63 17 77.5 52t6.5 148q-8 106 -26.5 140t-69.5 34zM521 1528q49 5 120 -15q55 -16 166.5 -19t213.5 8q170 19 205.5 11t25.5 -63q-8 -45 -52.5 -67t-151.5 -35 q-71 -8 -114 -15.5t-78 -20.5t-50.5 -27.5t-24 -41.5t-7.5 -57.5t9 -79.5q24 -155 71.5 -209t160.5 -54q50 0 78.5 -15.5t30 -35t-24.5 -40t-75 -29.5q-104 -19 -166.5 -97t-62.5 -188q0 -125 75 -176.5t217 -23.5q74 15 102 7t28 -45q0 -40 -45 -70t-112 -41t-138 -9 t-129.5 25t-79.5 62q-18 34 -31 106.5t-13 140.5q0 150 -57 200.5t-196 39.5q-48 -4 -87 -18.5t-65.5 -35.5t-46.5 -52.5t-31 -61t-17 -70t-8 -71.5t0 -73t4 -67t6 -61q1 -6 1 -9q7 -63 -5.5 -91.5t-45.5 -28.5q-49 0 -70 165t-3.5 370t65.5 309q77 167 156 377 q54 146 113 215t139 77z"></glyph>
      <glyph glyph-name="Ccedilla" unicode="Ç" d="M568 1592q52 4 106 -25q89 -48 75 -88t-130 -70q-155 -41 -270.5 -222t-131.5 -411q-5 -70 -7 -102t2 -72t9.5 -56t26 -45t41 -47.5t63.5 -56.5q140 -122 312.5 -135.5t334.5 85.5q160 98 200 75q20 -11 20 -52q0 -48 -51 -96t-131.5 -83.5t-179.5 -60.5t-195 -26.5 t-178 18.5q-108 30 -201.5 105.5t-163.5 188.5q-100 161 -72.5 376.5t179.5 472.5q95 161 178.5 241t163.5 86z"></glyph>
      <glyph glyph-name="Egrave" unicode="È" d="M476 1601q169 -9 228.5 -29t67.5 -72q3 -20 0.5 -33t-16.5 -24t-36.5 -18t-64.5 -12.5t-95 -9t-135 -7.5q-118 -5 -210 -2q25 -80 9 -224q-11 -101 -5.5 -171.5t25.5 -85.5q19 -14 100 -11t178 22q111 22 157 24t62 -13t16 -60q0 -51 -36 -79.5t-122 -45.5 q-209 -43 -299.5 -102.5t-90.5 -154.5q0 -84 42 -146t113 -93t169.5 -30t206.5 38q190 65 231 14q56 -69 -40 -126q-110 -66 -358 -85q-57 -4 -83.5 -6.5t-66 -3.5t-54.5 -1.5t-42.5 4.5t-35.5 7.5t-29 15t-27.5 20.5t-25 29.5t-28.5 36t-32 47.5q-27 39 -39 57t-28 51.5 t-21 48t-11.5 58.5t-6.5 70.5t1.5 95.5t5 122.5t9.5 162.5q2 37 11.5 112t15.5 136.5t8 128.5t-10 115.5t-39 70.5q-25 83 93 126.5t338 31.5z"></glyph>
      <glyph glyph-name="Eacute" unicode="É" d="M476 1601q169 -9 228.5 -29t67.5 -72q3 -20 0.5 -33t-16.5 -24t-36.5 -18t-64.5 -12.5t-95 -9t-135 -7.5q-118 -5 -210 -2q25 -80 9 -224q-11 -101 -5.5 -171.5t25.5 -85.5q19 -14 100 -11t178 22q111 22 157 24t62 -13t16 -60q0 -51 -36 -79.5t-122 -45.5 q-209 -43 -299.5 -102.5t-90.5 -154.5q0 -84 42 -146t113 -93t169.5 -30t206.5 38q190 65 231 14q56 -69 -40 -126q-110 -66 -358 -85q-57 -4 -83.5 -6.5t-66 -3.5t-54.5 -1.5t-42.5 4.5t-35.5 7.5t-29 15t-27.5 20.5t-25 29.5t-28.5 36t-32 47.5q-27 39 -39 57t-28 51.5 t-21 48t-11.5 58.5t-6.5 70.5t1.5 95.5t5 122.5t9.5 162.5q2 37 11.5 112t15.5 136.5t8 128.5t-10 115.5t-39 70.5q-25 83 93 126.5t338 31.5z"></glyph>
      <glyph glyph-name="Ecircumflex" unicode="Ê" d="M476 1601q169 -9 228.5 -29t67.5 -72q3 -20 0.5 -33t-16.5 -24t-36.5 -18t-64.5 -12.5t-95 -9t-135 -7.5q-118 -5 -210 -2q25 -80 9 -224q-11 -101 -5.5 -171.5t25.5 -85.5q19 -14 100 -11t178 22q111 22 157 24t62 -13t16 -60q0 -51 -36 -79.5t-122 -45.5 q-209 -43 -299.5 -102.5t-90.5 -154.5q0 -84 42 -146t113 -93t169.5 -30t206.5 38q190 65 231 14q56 -69 -40 -126q-110 -66 -358 -85q-57 -4 -83.5 -6.5t-66 -3.5t-54.5 -1.5t-42.5 4.5t-35.5 7.5t-29 15t-27.5 20.5t-25 29.5t-28.5 36t-32 47.5q-27 39 -39 57t-28 51.5 t-21 48t-11.5 58.5t-6.5 70.5t1.5 95.5t5 122.5t9.5 162.5q2 37 11.5 112t15.5 136.5t8 128.5t-10 115.5t-39 70.5q-25 83 93 126.5t338 31.5z"></glyph>
      <glyph glyph-name="Edieresis" unicode="Ë" d="M476 1601q169 -9 228.5 -29t67.5 -72q3 -20 0.5 -33t-16.5 -24t-36.5 -18t-64.5 -12.5t-95 -9t-135 -7.5q-118 -5 -210 -2q25 -80 9 -224q-11 -101 -5.5 -171.5t25.5 -85.5q19 -14 100 -11t178 22q111 22 157 24t62 -13t16 -60q0 -51 -36 -79.5t-122 -45.5 q-209 -43 -299.5 -102.5t-90.5 -154.5q0 -84 42 -146t113 -93t169.5 -30t206.5 38q190 65 231 14q56 -69 -40 -126q-110 -66 -358 -85q-57 -4 -83.5 -6.5t-66 -3.5t-54.5 -1.5t-42.5 4.5t-35.5 7.5t-29 15t-27.5 20.5t-25 29.5t-28.5 36t-32 47.5q-27 39 -39 57t-28 51.5 t-21 48t-11.5 58.5t-6.5 70.5t1.5 95.5t5 122.5t9.5 162.5q2 37 11.5 112t15.5 136.5t8 128.5t-10 115.5t-39 70.5q-25 83 93 126.5t338 31.5z"></glyph>
      <glyph glyph-name="Igrave" unicode="Ì" d="M95 1574q9 1 22 -2q25 -5 39 -22t23 -69.5t12.5 -132t5.5 -228.5q1 -87 -4 -247t-4.5 -266.5t11.5 -145.5q31 -115 28 -208.5t-29 -153t-63 -59.5q-24 7 -42 50t-28 124.5t-16 160.5t-7.5 203t-1.5 204t1.5 212t1.5 182q0 248 8.5 321.5t42.5 76.5z"></glyph>
      <glyph glyph-name="Iacute" unicode="Í" d="M95 1574q9 1 22 -2q25 -5 39 -22t23 -69.5t12.5 -132t5.5 -228.5q1 -87 -4 -247t-4.5 -266.5t11.5 -145.5q31 -115 28 -208.5t-29 -153t-63 -59.5q-24 7 -42 50t-28 124.5t-16 160.5t-7.5 203t-1.5 204t1.5 212t1.5 182q0 248 8.5 321.5t42.5 76.5z"></glyph>
      <glyph glyph-name="Icircumflex" unicode="Î" d="M95 1574q9 1 22 -2q25 -5 39 -22t23 -69.5t12.5 -132t5.5 -228.5q1 -87 -4 -247t-4.5 -266.5t11.5 -145.5q31 -115 28 -208.5t-29 -153t-63 -59.5q-24 7 -42 50t-28 124.5t-16 160.5t-7.5 203t-1.5 204t1.5 212t1.5 182q0 248 8.5 321.5t42.5 76.5z"></glyph>
      <glyph glyph-name="Idieresis" unicode="Ï" d="M95 1574q9 1 22 -2q25 -5 39 -22t23 -69.5t12.5 -132t5.5 -228.5q1 -87 -4 -247t-4.5 -266.5t11.5 -145.5q31 -115 28 -208.5t-29 -153t-63 -59.5q-24 7 -42 50t-28 124.5t-16 160.5t-7.5 203t-1.5 204t1.5 212t1.5 182q0 248 8.5 321.5t42.5 76.5z"></glyph>
      <glyph glyph-name="Eth" unicode="Ð" d="M438 1462q-24 4 -51 -1q-65 -13 -106 -64.5t-55 -127.5t-17.5 -173t6.5 -201h53q183 0 256.5 -13t73.5 -45q0 -37 -111.5 -67t-258.5 -40q1 -9 2.5 -26.5t2.5 -25.5q7 -80 12.5 -129.5t15.5 -94t19 -65.5t28 -33t37.5 -8.5t52 20.5t67.5 41.5t87 65.5q98 76 156 139 t87 131.5t27.5 139.5t-29.5 164q-44 147 -151.5 270.5t-203.5 142.5zM341 1626q41 2 84 -6q61 -11 104 -27q257 -95 397 -465q107 -283 -19 -503.5t-529 -457.5q-151 -89 -188.5 -99t-58.5 31q-19 36 -46 542q-1 14 -2.5 43t-2.5 43q-147 5 -177 42q-64 80 87 108 q34 7 81 11q-19 313 -28 396q-16 151 68.5 245t229.5 97z"></glyph>
      <glyph glyph-name="Ntilde" unicode="Ñ" d="M144 1594q57 9 157.5 -151.5t265.5 -512.5q113 -241 209.5 -415t120.5 -180q66 -17 100 99q43 148 42 548q-1 367 4 446q10 162 52 164q88 4 90 -689q0 -233 -33.5 -420.5t-93 -293t-134.5 -105.5q-26 10 -50.5 27.5t-38.5 32t-35.5 39t-31.5 34.5q-116 163 -474 926 q-40 86 -62 86q-33 -1 -39 -225q-3 -112 -2 -346q1 -121 -3.5 -209t-12.5 -138.5t-20.5 -79t-25 -36t-29.5 -3.5q-20 5 -30.5 29.5t-17.5 100t-9 192.5t-2 331q0 380 23 560t80 189z"></glyph>
      <glyph glyph-name="Ograve" unicode="Ò" d="M499 1384q-23 -3 -50 -20t-75 -57q-82 -68 -132 -206.5t-57.5 -284t27.5 -282.5t110 -204q70 -63 181.5 -54.5t190.5 82.5q86 81 156 233.5t70 257.5q0 120 -91 271t-202 216q-51 29 -78 40t-50 8zM393 1579q71 5 162 -16q80 -18 195 -120t206.5 -232.5t109.5 -222.5 q22 -113 -16.5 -293t-109.5 -297q-62 -101 -151.5 -174.5t-183 -106.5t-187 -24.5t-163.5 63.5q-105 83 -162 264t-52.5 412t71.5 454q44 146 110 216t171 77z"></glyph>
      <glyph glyph-name="Oacute" unicode="Ó" d="M499 1384q-23 -3 -50 -20t-75 -57q-82 -68 -132 -206.5t-57.5 -284t27.5 -282.5t110 -204q70 -63 181.5 -54.5t190.5 82.5q86 81 156 233.5t70 257.5q0 120 -91 271t-202 216q-51 29 -78 40t-50 8zM393 1579q71 5 162 -16q80 -18 195 -120t206.5 -232.5t109.5 -222.5 q22 -113 -16.5 -293t-109.5 -297q-62 -101 -151.5 -174.5t-183 -106.5t-187 -24.5t-163.5 63.5q-105 83 -162 264t-52.5 412t71.5 454q44 146 110 216t171 77z"></glyph>
      <glyph glyph-name="Ocircumflex" unicode="Ô" d="M499 1384q-23 -3 -50 -20t-75 -57q-82 -68 -132 -206.5t-57.5 -284t27.5 -282.5t110 -204q70 -63 181.5 -54.5t190.5 82.5q86 81 156 233.5t70 257.5q0 120 -91 271t-202 216q-51 29 -78 40t-50 8zM393 1579q71 5 162 -16q80 -18 195 -120t206.5 -232.5t109.5 -222.5 q22 -113 -16.5 -293t-109.5 -297q-62 -101 -151.5 -174.5t-183 -106.5t-187 -24.5t-163.5 63.5q-105 83 -162 264t-52.5 412t71.5 454q44 146 110 216t171 77z"></glyph>
      <glyph glyph-name="Otilde" unicode="Õ" d="M499 1384q-23 -3 -50 -20t-75 -57q-82 -68 -132 -206.5t-57.5 -284t27.5 -282.5t110 -204q70 -63 181.5 -54.5t190.5 82.5q86 81 156 233.5t70 257.5q0 120 -91 271t-202 216q-51 29 -78 40t-50 8zM393 1579q71 5 162 -16q80 -18 195 -120t206.5 -232.5t109.5 -222.5 q22 -113 -16.5 -293t-109.5 -297q-62 -101 -151.5 -174.5t-183 -106.5t-187 -24.5t-163.5 63.5q-105 83 -162 264t-52.5 412t71.5 454q44 146 110 216t171 77z"></glyph>
      <glyph glyph-name="Odieresis" unicode="Ö" d="M499 1384q-23 -3 -50 -20t-75 -57q-82 -68 -132 -206.5t-57.5 -284t27.5 -282.5t110 -204q70 -63 181.5 -54.5t190.5 82.5q86 81 156 233.5t70 257.5q0 120 -91 271t-202 216q-51 29 -78 40t-50 8zM393 1579q71 5 162 -16q80 -18 195 -120t206.5 -232.5t109.5 -222.5 q22 -113 -16.5 -293t-109.5 -297q-62 -101 -151.5 -174.5t-183 -106.5t-187 -24.5t-163.5 63.5q-105 83 -162 264t-52.5 412t71.5 454q44 146 110 216t171 77z"></glyph>
      <glyph glyph-name="multiply" unicode="×" d="M76 1034q33 -4 62.5 -28t47 -50.5t38 -47.5t37.5 -20q10 0 20.5 21t23.5 50.5t26 43.5q42 34 84 27.5t47 -40t-30 -75.5q-24 -24 -34.5 -40.5t-15.5 -35t5 -45.5t26 -58.5t48 -86.5q90 -153 46 -180q-12 -8 -34 -8q-11 0 -35 24.5t-47 59.5q-9 14 -35 61.5t-46 75.5 t-33 29q-10 1 -19 -15t-15 -37t-15.5 -45t-18.5 -35q-41 -50 -87 -52q-35 -1 -37 29q-1 13 7 31q41 94 41.5 184.5t-40.5 124.5q-29 24 -43 57t-7 57t33 24z"></glyph>
      <glyph glyph-name="Oslash" unicode="Ø" d="M499 1384q-23 -3 -50 -20t-75 -57q-82 -68 -132 -206.5t-57.5 -284t27.5 -282.5t110 -204q70 -63 181.5 -54.5t190.5 82.5q86 81 156 233.5t70 257.5q0 120 -91 271t-202 216q-51 29 -78 40t-50 8zM393 1579q71 5 162 -16q80 -18 195 -120t206.5 -232.5t109.5 -222.5 q22 -113 -16.5 -293t-109.5 -297q-62 -101 -151.5 -174.5t-183 -106.5t-187 -24.5t-163.5 63.5q-105 83 -162 264t-52.5 412t71.5 454q44 146 110 216t171 77z"></glyph>
      <glyph glyph-name="Ugrave" unicode="Ù" d="M117 1592q15 0 26 -8t18.5 -27.5t12.5 -40t8.5 -56.5t5.5 -65t5 -79t6 -86q36 -444 96 -675.5t139 -231.5q61 0 117 123.5t90.5 302t47.5 371.5q14 209 33.5 304.5t53.5 95.5q47 0 66.5 -114t9 -287t-37.5 -356.5t-76 -342.5t-104 -226q-143 -175 -314 -42 q-63 36 -115 119t-83.5 186.5t-50 204t-24.5 192.5q-8 165 -3.5 329t25 286.5t48.5 122.5z"></glyph>
      <glyph glyph-name="Uacute" unicode="Ú" d="M117 1592q15 0 26 -8t18.5 -27.5t12.5 -40t8.5 -56.5t5.5 -65t5 -79t6 -86q36 -444 96 -675.5t139 -231.5q61 0 117 123.5t90.5 302t47.5 371.5q14 209 33.5 304.5t53.5 95.5q47 0 66.5 -114t9 -287t-37.5 -356.5t-76 -342.5t-104 -226q-143 -175 -314 -42 q-63 36 -115 119t-83.5 186.5t-50 204t-24.5 192.5q-8 165 -3.5 329t25 286.5t48.5 122.5z"></glyph>
      <glyph glyph-name="Ucircumflex" unicode="Û" d="M117 1592q15 0 26 -8t18.5 -27.5t12.5 -40t8.5 -56.5t5.5 -65t5 -79t6 -86q36 -444 96 -675.5t139 -231.5q61 0 117 123.5t90.5 302t47.5 371.5q14 209 33.5 304.5t53.5 95.5q47 0 66.5 -114t9 -287t-37.5 -356.5t-76 -342.5t-104 -226q-143 -175 -314 -42 q-63 36 -115 119t-83.5 186.5t-50 204t-24.5 192.5q-8 165 -3.5 329t25 286.5t48.5 122.5z"></glyph>
      <glyph glyph-name="Udieresis" unicode="Ü" d="M117 1592q15 0 26 -8t18.5 -27.5t12.5 -40t8.5 -56.5t5.5 -65t5 -79t6 -86q36 -444 96 -675.5t139 -231.5q61 0 117 123.5t90.5 302t47.5 371.5q14 209 33.5 304.5t53.5 95.5q47 0 66.5 -114t9 -287t-37.5 -356.5t-76 -342.5t-104 -226q-143 -175 -314 -42 q-63 36 -115 119t-83.5 186.5t-50 204t-24.5 192.5q-8 165 -3.5 329t25 286.5t48.5 122.5z"></glyph>
      <glyph glyph-name="Yacute" unicode="Ý" d="M105 1588q28 8 74.5 -44.5t133.5 -192.5q61 -97 105 -158.5t83.5 -99t68 -45t56 12.5t50.5 64t49 118q30 86 70.5 161.5t67.5 94.5q83 59 80 -43t-92 -344q-46 -123 -96 -307.5t-76 -320.5q-55 -295 -125 -402q-48 -74 -79 -9q-10 23 0 137.5t35 254.5q11 59 16.5 90 t11.5 72.5t8.5 59.5t3.5 45.5t-0.5 37.5t-6 28t-9.5 25t-16 20.5t-21 21.5t-27 23q-52 43 -158 189.5t-190 287t-81 169.5q2 15 20.5 31t43.5 23z"></glyph>
      <glyph glyph-name="Thorn" unicode="Þ" d="M393 962q-52 0 -99.5 -35t-71.5 -86t-27 -107t32 -98q42 -54 111.5 -49.5t177.5 68.5q50 30 86 72.5t36 73.5q0 62 -75.5 111.5t-169.5 49.5zM144 1588q19 5 35.5 -17t27 -76.5t10.5 -132.5q0 -58 1 -88t10 -60.5t19 -42.5t38.5 -26t58 -20t87.5 -16q140 -25 269 -100 t131 -133q5 -108 -81 -214t-229 -170q-228 -103 -262 -119q-28 -13 -49 -70.5t-27 -134.5q-13 -175 -74 -175q-33 0 -48 46t-18 154q-4 166 1 524t16 603q5 117 29.5 188.5t54.5 79.5z"></glyph>
      <glyph glyph-name="germandbls" unicode="ß" d="M592 1701q72 0 124.5 -50.5t73.5 -127.5t9.5 -176.5t-58.5 -190.5q-58 -111 -41.5 -162t109.5 -51q35 0 96 -36t112 -87q126 -126 127 -275.5t-123 -274.5q-59 -59 -188.5 -113t-253.5 -78t-175 -4q-70 27 -59 70q12 43 96 70q29 10 63 15q163 35 271 86t155 110.5 t47.5 124t-43.5 134.5q-15 24 -86.5 56.5t-155.5 53.5q-123 31 -174.5 74.5t-44 111.5t74.5 178q56 91 76 167.5t1.5 120.5t-73.5 44q-86 0 -164 -171.5t-129.5 -465.5t-60.5 -637q-5 -170 -14 -296t-18 -135t-30 -0.5t-41 29.5q-43 43 -51.5 232.5t13 424t69.5 483 t109 399.5q57 143 162 245t195 102z"></glyph>
      <glyph glyph-name="agrave" unicode="à" d="M580 641q-44 0 -137.5 -79.5t-170 -177.5t-76.5 -143q0 -64 57 -63q74 2 185 100q35 31 69 68q180 199 143 267q-16 28 -70 28zM848 855q42 -2 78 -29t44 -69q14 -71 63 -369q44 -267 73 -390q16 -68 7 -92t-50 -24q-28 0 -58.5 28t-45.5 67q-37 97 -68 243 q-31 147 -53 184q-6 10 -38 -11t-81 -66.5t-104 -104.5q-97 -106 -146 -146.5t-93.5 -52.5t-122.5 -6q-99 8 -137.5 32.5t-63.5 94.5q-15 52 -7.5 113t40.5 127t78 129t104.5 118t120 95t124.5 60t118 12q49 -7 89.5 -1.5t49.5 19.5q25 41 79 39z"></glyph>
      <glyph glyph-name="aacute" unicode="á" d="M580 641q-44 0 -137.5 -79.5t-170 -177.5t-76.5 -143q0 -64 57 -63q74 2 185 100q35 31 69 68q180 199 143 267q-16 28 -70 28zM848 855q42 -2 78 -29t44 -69q14 -71 63 -369q44 -267 73 -390q16 -68 7 -92t-50 -24q-28 0 -58.5 28t-45.5 67q-37 97 -68 243 q-31 147 -53 184q-6 10 -38 -11t-81 -66.5t-104 -104.5q-97 -106 -146 -146.5t-93.5 -52.5t-122.5 -6q-99 8 -137.5 32.5t-63.5 94.5q-15 52 -7.5 113t40.5 127t78 129t104.5 118t120 95t124.5 60t118 12q49 -7 89.5 -1.5t49.5 19.5q25 41 79 39z"></glyph>
      <glyph glyph-name="acircumflex" unicode="â" d="M580 641q-44 0 -137.5 -79.5t-170 -177.5t-76.5 -143q0 -64 57 -63q74 2 185 100q35 31 69 68q180 199 143 267q-16 28 -70 28zM848 855q42 -2 78 -29t44 -69q14 -71 63 -369q44 -267 73 -390q16 -68 7 -92t-50 -24q-28 0 -58.5 28t-45.5 67q-37 97 -68 243 q-31 147 -53 184q-6 10 -38 -11t-81 -66.5t-104 -104.5q-97 -106 -146 -146.5t-93.5 -52.5t-122.5 -6q-99 8 -137.5 32.5t-63.5 94.5q-15 52 -7.5 113t40.5 127t78 129t104.5 118t120 95t124.5 60t118 12q49 -7 89.5 -1.5t49.5 19.5q25 41 79 39z"></glyph>
      <glyph glyph-name="atilde" unicode="ã" d="M580 641q-44 0 -137.5 -79.5t-170 -177.5t-76.5 -143q0 -64 57 -63q74 2 185 100q35 31 69 68q180 199 143 267q-16 28 -70 28zM848 855q42 -2 78 -29t44 -69q14 -71 63 -369q44 -267 73 -390q16 -68 7 -92t-50 -24q-28 0 -58.5 28t-45.5 67q-37 97 -68 243 q-31 147 -53 184q-6 10 -38 -11t-81 -66.5t-104 -104.5q-97 -106 -146 -146.5t-93.5 -52.5t-122.5 -6q-99 8 -137.5 32.5t-63.5 94.5q-15 52 -7.5 113t40.5 127t78 129t104.5 118t120 95t124.5 60t118 12q49 -7 89.5 -1.5t49.5 19.5q25 41 79 39z"></glyph>
      <glyph glyph-name="adieresis" unicode="ä" d="M580 641q-44 0 -137.5 -79.5t-170 -177.5t-76.5 -143q0 -64 57 -63q74 2 185 100q35 31 69 68q180 199 143 267q-16 28 -70 28zM848 855q42 -2 78 -29t44 -69q14 -71 63 -369q44 -267 73 -390q16 -68 7 -92t-50 -24q-28 0 -58.5 28t-45.5 67q-37 97 -68 243 q-31 147 -53 184q-6 10 -38 -11t-81 -66.5t-104 -104.5q-97 -106 -146 -146.5t-93.5 -52.5t-122.5 -6q-99 8 -137.5 32.5t-63.5 94.5q-15 52 -7.5 113t40.5 127t78 129t104.5 118t120 95t124.5 60t118 12q49 -7 89.5 -1.5t49.5 19.5q25 41 79 39z"></glyph>
      <glyph glyph-name="aring" unicode="å" d="M580 641q-44 0 -137.5 -79.5t-170 -177.5t-76.5 -143q0 -64 57 -63q74 2 185 100q35 31 69 68q180 199 143 267q-16 28 -70 28zM848 855q42 -2 78 -29t44 -69q14 -71 63 -369q44 -267 73 -390q16 -68 7 -92t-50 -24q-28 0 -58.5 28t-45.5 67q-37 97 -68 243 q-31 147 -53 184q-6 10 -38 -11t-81 -66.5t-104 -104.5q-97 -106 -146 -146.5t-93.5 -52.5t-122.5 -6q-99 8 -137.5 32.5t-63.5 94.5q-15 52 -7.5 113t40.5 127t78 129t104.5 118t120 95t124.5 60t118 12q49 -7 89.5 -1.5t49.5 19.5q25 41 79 39z"></glyph>
      <glyph glyph-name="ae" unicode="æ" d="M472 657q-59 0 -151.5 -98.5t-92.5 -160.5q0 -59 56 -53q64 6 165 93q40 35 60 87.5t10 92t-47 39.5zM989 699q-39 0 -63 -18.5t-24 -47.5q0 -37 33.5 -48.5t72.5 6.5t52 56q7 23 -13 37.5t-58 14.5zM1060 907q96 -5 151 -84q40 -57 40 -120.5t-34 -120t-100.5 -102.5 t-154.5 -70q-113 -30 -132 -91q-16 -53 44 -95q64 -45 179 -49q132 -5 167 -50q28 -37 -35 -75q-21 -13 -51 -25q-42 -15 -67.5 -21t-58 -6.5t-64.5 11t-72 36.5q-55 24 -110.5 67t-78.5 79q-96 155 -268 25q-89 -67 -202 -61t-153 80q-46 86 15 226.5t194 252.5 q90 76 145.5 91t173.5 -3q100 -15 162.5 -6t115.5 46q100 70 194 65z"></glyph>
      <glyph glyph-name="ccedilla" unicode="ç" d="M426 885q64 5 112 -30q68 -50 40 -100t-124 -50q-70 0 -130.5 -46t-93 -112.5t-33 -145.5t39.5 -140q59 -90 178.5 -101.5t285.5 57.5q58 24 107.5 34.5t59.5 0.5q53 -53 -38 -120q-92 -69 -255 -105q-192 -43 -301 3q-93 39 -161.5 148t-71.5 224q-3 110 57 221.5 t150.5 183t177.5 78.5z"></glyph>
      <glyph glyph-name="egrave" unicode="è" d="M550 814q-42 6 -105 -17t-127 -73q-56 -45 -86 -116t-29 -150q30 28 91 56q243 133 291 228q26 53 -20 69q-7 2 -15 3zM567 979q85 0 135 -69t52 -161q1 -41 -101.5 -135t-220 -171t-158.5 -77q-34 0 -61 10q21 -98 83 -160q68 -68 182.5 -70.5t376.5 59.5 q100 24 107 -13q6 -34 -71 -91q-41 -31 -97 -59q-131 -66 -263 -69t-245 58q-108 59 -170 155t-72.5 199.5t21 210.5t98 191.5t173 138t231.5 53.5z"></glyph>
      <glyph glyph-name="eacute" unicode="é" d="M550 814q-42 6 -105 -17t-127 -73q-56 -45 -86 -116t-29 -150q30 28 91 56q243 133 291 228q26 53 -20 69q-7 2 -15 3zM567 979q85 0 135 -69t52 -161q1 -41 -101.5 -135t-220 -171t-158.5 -77q-34 0 -61 10q21 -98 83 -160q68 -68 182.5 -70.5t376.5 59.5 q100 24 107 -13q6 -34 -71 -91q-41 -31 -97 -59q-131 -66 -263 -69t-245 58q-108 59 -170 155t-72.5 199.5t21 210.5t98 191.5t173 138t231.5 53.5z"></glyph>
      <glyph glyph-name="ecircumflex" unicode="ê" d="M550 814q-42 6 -105 -17t-127 -73q-56 -45 -86 -116t-29 -150q30 28 91 56q243 133 291 228q26 53 -20 69q-7 2 -15 3zM567 979q85 0 135 -69t52 -161q1 -41 -101.5 -135t-220 -171t-158.5 -77q-34 0 -61 10q21 -98 83 -160q68 -68 182.5 -70.5t376.5 59.5 q100 24 107 -13q6 -34 -71 -91q-41 -31 -97 -59q-131 -66 -263 -69t-245 58q-108 59 -170 155t-72.5 199.5t21 210.5t98 191.5t173 138t231.5 53.5z"></glyph>
      <glyph glyph-name="edieresis" unicode="ë" d="M550 814q-42 6 -105 -17t-127 -73q-56 -45 -86 -116t-29 -150q30 28 91 56q243 133 291 228q26 53 -20 69q-7 2 -15 3zM567 979q85 0 135 -69t52 -161q1 -41 -101.5 -135t-220 -171t-158.5 -77q-34 0 -61 10q21 -98 83 -160q68 -68 182.5 -70.5t376.5 59.5 q100 24 107 -13q6 -34 -71 -91q-41 -31 -97 -59q-131 -66 -263 -69t-245 58q-108 59 -170 155t-72.5 199.5t21 210.5t98 191.5t173 138t231.5 53.5z"></glyph>
      <glyph glyph-name="igrave" unicode="ì" d="M96 765q12 1 28 -4q39 -14 58.5 -77t15.5 -166q-3 -80 -3 -231.5t3 -196.5q4 -61 -8.5 -82t-50.5 -14q-67 11 -67 22q0 5 -3.5 74.5t-9.5 176.5t-12 179q-10 122 -5 213.5t22 98.5q11 5 32 7zM127 1037q31 -5 50.5 -23t15.5 -37q-8 -47 -56 -64.5t-73 17.5 q-35 50 -15 83.5t78 23.5z"></glyph>
      <glyph glyph-name="iacute" unicode="í" d="M96 765q12 1 28 -4q39 -14 58.5 -77t15.5 -166q-3 -80 -3 -231.5t3 -196.5q4 -61 -8.5 -82t-50.5 -14q-67 11 -67 22q0 5 -3.5 74.5t-9.5 176.5t-12 179q-10 122 -5 213.5t22 98.5q11 5 32 7zM127 1037q31 -5 50.5 -23t15.5 -37q-8 -47 -56 -64.5t-73 17.5 q-35 50 -15 83.5t78 23.5z"></glyph>
      <glyph glyph-name="icircumflex" unicode="î" d="M96 765q12 1 28 -4q39 -14 58.5 -77t15.5 -166q-3 -80 -3 -231.5t3 -196.5q4 -61 -8.5 -82t-50.5 -14q-67 11 -67 22q0 5 -3.5 74.5t-9.5 176.5t-12 179q-10 122 -5 213.5t22 98.5q11 5 32 7zM127 1037q31 -5 50.5 -23t15.5 -37q-8 -47 -56 -64.5t-73 17.5 q-35 50 -15 83.5t78 23.5z"></glyph>
      <glyph glyph-name="idieresis" unicode="ï" d="M96 765q12 1 28 -4q39 -14 58.5 -77t15.5 -166q-3 -80 -3 -231.5t3 -196.5q4 -61 -8.5 -82t-50.5 -14q-67 11 -67 22q0 5 -3.5 74.5t-9.5 176.5t-12 179q-10 122 -5 213.5t22 98.5q11 5 32 7zM127 1037q31 -5 50.5 -23t15.5 -37q-8 -47 -56 -64.5t-73 17.5 q-35 50 -15 83.5t78 23.5z"></glyph>
      <glyph glyph-name="eth" unicode="ð" d="M745 1383q51 0 71 -23q33 -39 49 -215q12 -127 28 -486q132 -3 187 -16t55 -41t-66 -52.5t-169 -40.5q5 -119 7 -203t1.5 -149.5t-4 -105.5t-10.5 -66t-16.5 -35.5t-24.5 -9.5q-30 0 -60 23.5t-44 57.5q-13 34 -22.5 101.5t-9.5 130.5q0 116 -13 133q-15 20 -67 -27 q-28 -25 -114 -114q-57 -59 -111.5 -92.5t-106.5 -42.5t-97.5 -3t-96.5 25q-64 80 -69 183.5t38.5 195.5t130 168.5t194.5 106.5l260 33v282q0 164 16.5 223t63.5 59zM553 496q-90 10 -113 37q-67 83 98 111q43 7 103 11q-4 14 -26.5 19t-71.5 5q-84 0 -171.5 -45.5 t-135.5 -111t-27 -118.5q22 -55 48 -71.5t68.5 -1.5t118.5 67q52 36 109 98z"></glyph>
      <glyph glyph-name="ntilde" unicode="ñ" d="M120 920q25 1 45 -36.5t29 -105.5q19 -142 63.5 -151t122.5 112q73 115 178.5 144.5t199.5 -37.5q45 -31 111 -180.5t113 -318.5t42 -250q-6 -112 -47 -110q-37 1 -80 96q-29 64 -50 154q-62 266 -128 377.5t-144 81.5q-74 -28 -120 -120t-100 -320q-34 -143 -60.5 -185 t-84.5 -43q-54 -1 -78.5 28.5t-39.5 113.5q-37 209 -48 428t14 265q30 57 62 57z"></glyph>
      <glyph glyph-name="ograve" unicode="ò" d="M420 793q-20 -3 -43 -20.5t-65 -56.5q-95 -89 -107.5 -238t65.5 -260q58 -82 143 -89.5t214 59.5q70 36 109 90t42 116t-22 126t-84 125.5t-143 109.5q-77 44 -109 38zM375 958q91 0 237 -70q109 -52 165.5 -110.5t104.5 -167.5q77 -175 53 -289.5t-160 -218.5 q-269 -205 -515 -80q-113 57 -170 168.5t-48.5 256t82.5 296.5q54 111 112.5 162.5t138.5 52.5z"></glyph>
      <glyph glyph-name="oacute" unicode="ó" d="M420 793q-20 -3 -43 -20.5t-65 -56.5q-95 -89 -107.5 -238t65.5 -260q58 -82 143 -89.5t214 59.5q70 36 109 90t42 116t-22 126t-84 125.5t-143 109.5q-77 44 -109 38zM375 958q91 0 237 -70q109 -52 165.5 -110.5t104.5 -167.5q77 -175 53 -289.5t-160 -218.5 q-269 -205 -515 -80q-113 57 -170 168.5t-48.5 256t82.5 296.5q54 111 112.5 162.5t138.5 52.5z"></glyph>
      <glyph glyph-name="ocircumflex" unicode="ô" d="M420 793q-20 -3 -43 -20.5t-65 -56.5q-95 -89 -107.5 -238t65.5 -260q58 -82 143 -89.5t214 59.5q70 36 109 90t42 116t-22 126t-84 125.5t-143 109.5q-77 44 -109 38zM375 958q91 0 237 -70q109 -52 165.5 -110.5t104.5 -167.5q77 -175 53 -289.5t-160 -218.5 q-269 -205 -515 -80q-113 57 -170 168.5t-48.5 256t82.5 296.5q54 111 112.5 162.5t138.5 52.5z"></glyph>
      <glyph glyph-name="otilde" unicode="õ" d="M420 793q-20 -3 -43 -20.5t-65 -56.5q-95 -89 -107.5 -238t65.5 -260q58 -82 143 -89.5t214 59.5q70 36 109 90t42 116t-22 126t-84 125.5t-143 109.5q-77 44 -109 38zM375 958q91 0 237 -70q109 -52 165.5 -110.5t104.5 -167.5q77 -175 53 -289.5t-160 -218.5 q-269 -205 -515 -80q-113 57 -170 168.5t-48.5 256t82.5 296.5q54 111 112.5 162.5t138.5 52.5z"></glyph>
      <glyph glyph-name="odieresis" unicode="ö" d="M420 793q-20 -3 -43 -20.5t-65 -56.5q-95 -89 -107.5 -238t65.5 -260q58 -82 143 -89.5t214 59.5q70 36 109 90t42 116t-22 126t-84 125.5t-143 109.5q-77 44 -109 38zM375 958q91 0 237 -70q109 -52 165.5 -110.5t104.5 -167.5q77 -175 53 -289.5t-160 -218.5 q-269 -205 -515 -80q-113 57 -170 168.5t-48.5 256t82.5 296.5q54 111 112.5 162.5t138.5 52.5z"></glyph>
      <glyph glyph-name="divide" unicode="÷" d="M389 542q40 2 74 -46.5t18 -91.5q-16 -44 -35.5 -50t-72.5 16q-25 10 -35.5 44t-2 70t32.5 51q12 7 21 7zM438 862q144 2 249.5 -4.5t110.5 -22.5q8 -23 -9 -38.5t-66.5 -28t-130.5 -21t-209 -16.5q-167 -10 -242.5 -5t-89.5 28q-11 17 -10 37t13 31q17 16 128.5 27 t255.5 13zM376 1222q36 -3 63 -38.5t13 -71.5q-19 -48 -67.5 -46t-67.5 51q-8 22 -3 48.5t20 41.5q17 17 42 15z"></glyph>
      <glyph glyph-name="oslash" unicode="ø" d="M420 793q-20 -3 -43 -20.5t-65 -56.5q-95 -89 -107.5 -238t65.5 -260q58 -82 143 -89.5t214 59.5q70 36 109 90t42 116t-22 126t-84 125.5t-143 109.5q-77 44 -109 38zM375 958q91 0 237 -70q109 -52 165.5 -110.5t104.5 -167.5q77 -175 53 -289.5t-160 -218.5 q-269 -205 -515 -80q-113 57 -170 168.5t-48.5 256t82.5 296.5q54 111 112.5 162.5t138.5 52.5z"></glyph>
      <glyph glyph-name="ugrave" unicode="ù" d="M183 913q58 -21 38 -235q-16 -167 36 -256.5t164 -89.5q73 0 160 108.5t115 233.5q16 74 41 97.5t78 15.5q27 -4 42.5 -14.5t29.5 -32t25 -74t21.5 -119.5t26.5 -189q22 -167 25.5 -225.5t-6.5 -76.5q-23 -60 -64 -55t-60 71q-13 49 -32 172q-5 30 -10 51.5t-10 37.5 t-12 23t-13 11.5t-16.5 -0.5t-18 -9.5t-22 -18.5t-25 -25t-30 -31t-34.5 -35q-39 -39 -101 -61.5t-129 -22.5q-87 0 -137.5 28t-114.5 112q-91 119 -106.5 287.5t55.5 265.5q51 69 84 56z"></glyph>
      <glyph glyph-name="uacute" unicode="ú" d="M183 913q58 -21 38 -235q-16 -167 36 -256.5t164 -89.5q73 0 160 108.5t115 233.5q16 74 41 97.5t78 15.5q27 -4 42.5 -14.5t29.5 -32t25 -74t21.5 -119.5t26.5 -189q22 -167 25.5 -225.5t-6.5 -76.5q-23 -60 -64 -55t-60 71q-13 49 -32 172q-5 30 -10 51.5t-10 37.5 t-12 23t-13 11.5t-16.5 -0.5t-18 -9.5t-22 -18.5t-25 -25t-30 -31t-34.5 -35q-39 -39 -101 -61.5t-129 -22.5q-87 0 -137.5 28t-114.5 112q-91 119 -106.5 287.5t55.5 265.5q51 69 84 56z"></glyph>
      <glyph glyph-name="ucircumflex" unicode="û" d="M183 913q58 -21 38 -235q-16 -167 36 -256.5t164 -89.5q73 0 160 108.5t115 233.5q16 74 41 97.5t78 15.5q27 -4 42.5 -14.5t29.5 -32t25 -74t21.5 -119.5t26.5 -189q22 -167 25.5 -225.5t-6.5 -76.5q-23 -60 -64 -55t-60 71q-13 49 -32 172q-5 30 -10 51.5t-10 37.5 t-12 23t-13 11.5t-16.5 -0.5t-18 -9.5t-22 -18.5t-25 -25t-30 -31t-34.5 -35q-39 -39 -101 -61.5t-129 -22.5q-87 0 -137.5 28t-114.5 112q-91 119 -106.5 287.5t55.5 265.5q51 69 84 56z"></glyph>
      <glyph glyph-name="udieresis" unicode="ü" d="M183 913q58 -21 38 -235q-16 -167 36 -256.5t164 -89.5q73 0 160 108.5t115 233.5q16 74 41 97.5t78 15.5q27 -4 42.5 -14.5t29.5 -32t25 -74t21.5 -119.5t26.5 -189q22 -167 25.5 -225.5t-6.5 -76.5q-23 -60 -64 -55t-60 71q-13 49 -32 172q-5 30 -10 51.5t-10 37.5 t-12 23t-13 11.5t-16.5 -0.5t-18 -9.5t-22 -18.5t-25 -25t-30 -31t-34.5 -35q-39 -39 -101 -61.5t-129 -22.5q-87 0 -137.5 28t-114.5 112q-91 119 -106.5 287.5t55.5 265.5q51 69 84 56z"></glyph>
      <glyph glyph-name="yacute" unicode="ý" d="M138 842q31 0 45 -43t14 -137q0 -153 57.5 -253.5t159.5 -127.5q43 -11 103.5 20.5t117.5 88.5t106.5 135.5t70.5 153.5q31 108 103.5 148.5t131.5 -17.5q33 -33 -2.5 -268t-120.5 -542q-55 -198 -154 -407t-174 -284q-51 -51 -121 -65q-59 -13 -66 17q-1 3 -1 6 q0 11 42.5 88.5t101.5 174.5q58 96 112.5 216t86.5 220t45 177.5t-11 88.5q-16 10 -55 -0.5t-79 -35.5q-153 -96 -254.5 -93t-196.5 104q-51 55 -89 138t-54 167.5t-16 159.5t25.5 122.5t71.5 47.5z"></glyph>
      <glyph glyph-name="thorn" unicode="þ" d="M393 962q-52 0 -99.5 -35t-71.5 -86t-27 -107t32 -98q42 -54 111.5 -49.5t177.5 68.5q50 30 86 72.5t36 73.5q0 62 -75.5 111.5t-169.5 49.5zM144 1588q19 5 35.5 -17t27 -76.5t10.5 -132.5q0 -58 1 -88t10 -60.5t19 -42.5t38.5 -26t58 -20t87.5 -16q140 -25 269 -100 t131 -133q5 -108 -81 -214t-229 -170q-228 -103 -262 -119q-28 -13 -49 -70.5t-27 -134.5q-13 -175 -74 -175q-33 0 -48 46t-18 154q-4 166 1 524t16 603q5 117 29.5 188.5t54.5 79.5z"></glyph>
      <glyph glyph-name="ydieresis" unicode="ÿ" d="M138 842q31 0 45 -43t14 -137q0 -153 57.5 -253.5t159.5 -127.5q43 -11 103.5 20.5t117.5 88.5t106.5 135.5t70.5 153.5q31 108 103.5 148.5t131.5 -17.5q33 -33 -2.5 -268t-120.5 -542q-55 -198 -154 -407t-174 -284q-51 -51 -121 -65q-59 -13 -66 17q-1 3 -1 6 q0 11 42.5 88.5t101.5 174.5q58 96 112.5 216t86.5 220t45 177.5t-11 88.5q-16 10 -55 -0.5t-79 -35.5q-153 -96 -254.5 -93t-196.5 104q-51 55 -89 138t-54 167.5t-16 159.5t25.5 122.5t71.5 47.5z"></glyph>
      <glyph glyph-name="dotlessi" unicode="ı"></glyph>
      <glyph glyph-name="OE" unicode="Œ" d="M673 1350q-70 -2 -164.5 -58.5t-176.5 -149.5q-134 -153 -136 -335.5t131 -315.5q98 -98 183.5 -116.5t148.5 43.5q49 49 49 160t-49 160q-29 29 -20 65.5t63 109.5q74 100 88 227t-43 184q-27 28 -74 26zM817 1529q222 6 447 -28t225 -80q0 -34 -47.5 -51t-162.5 -25 q-103 -7 -163 -20.5t-96 -43.5t-45.5 -75t-3.5 -119q3 -42 5.5 -62.5t11.5 -41t16.5 -27t31.5 -12.5t46.5 -6.5t69.5 -0.5q137 0 169 -42q25 -31 -27 -63t-154 -46q-74 -10 -137.5 -28.5t-79.5 -34.5q-27 -28 -42.5 -105t-7.5 -147q4 -35 81.5 -70t178.5 -51.5t167 -2.5 q93 21 122 -17q23 -32 -16 -75q-33 -36 -96 -60q-143 -55 -290 -54.5t-402 56.5q-134 29 -247.5 65t-138.5 58q-66 54 -113 150.5t-66 202.5t-9 216.5t52 190.5q62 120 214 249t281 172q74 25 226 28z"></glyph>
      <glyph glyph-name="oe" unicode="œ" d="M431 743q-63 -7 -118 -66.5t-83 -136t-22.5 -158.5t53.5 -130q32 -32 99 -44t126 1t70 45q17 54 15 263q-1 100 -8.5 142t-27.5 59t-69 24q-16 3 -35 1zM1015 749q-45 0 -99 -39t-84 -89.5t-12 -79.5q31 -50 92.5 -41t142.5 74q78 63 65 119t-105 56zM1101 908 q35 -2 55 -7q65 -17 112 -72.5t56 -121.5t-20 -129q-35 -65 -197 -157.5t-242 -92.5q-67 0 -61 -39q5 -41 85 -113q47 -43 116 -61t179 -16q171 2 205 -45q29 -41 -66 -96q-6 -4 -14 -8q-89 -48 -176 -39.5t-224 78.5q-91 46 -166.5 59t-178.5 -1q-155 -21 -295.5 24.5 t-186.5 132.5q-37 69 -41.5 158t23 175.5t74 163.5t115 130t143.5 67q62 12 129.5 5.5t108.5 -28.5q55 -30 107.5 -30t145.5 31q105 35 214 32z"></glyph>
      <glyph glyph-name="Scaron" unicode="Š"></glyph>
      <glyph glyph-name="scaron" unicode="š"></glyph>
      <glyph glyph-name="Ydieresis" unicode="Ÿ" d="M105 1588q28 8 74.5 -44.5t133.5 -192.5q61 -97 105 -158.5t83.5 -99t68 -45t56 12.5t50.5 64t49 118q30 86 70.5 161.5t67.5 94.5q83 59 80 -43t-92 -344q-46 -123 -96 -307.5t-76 -320.5q-55 -295 -125 -402q-48 -74 -79 -9q-10 23 0 137.5t35 254.5q11 59 16.5 90 t11.5 72.5t8.5 59.5t3.5 45.5t-0.5 37.5t-6 28t-9.5 25t-16 20.5t-21 21.5t-27 23q-52 43 -158 189.5t-190 287t-81 169.5q2 15 20.5 31t43.5 23z"></glyph>
      <glyph glyph-name="Zcaron" unicode="Ž"></glyph>
      <glyph glyph-name="zcaron" unicode="ž"></glyph>
      <glyph glyph-name="endash" unicode="–"></glyph>
      <glyph glyph-name="emdash" unicode="—"></glyph>
      <glyph glyph-name="quoteleft" unicode="‘"></glyph>
      <glyph glyph-name="quoteright" unicode="’"></glyph>
      <glyph glyph-name="quotesinglbase" unicode="‚"></glyph>
      <glyph glyph-name="quotedblleft" unicode="“"></glyph>
      <glyph glyph-name="quotedblright" unicode="”"></glyph>
      <glyph glyph-name="quotedblbase" unicode="„"></glyph>
      <glyph glyph-name="dagger" unicode="†"></glyph>
      <glyph glyph-name="bullet" unicode="•"></glyph>
      <glyph glyph-name="ellipsis" unicode="…"></glyph>
      <glyph glyph-name="Euro" unicode="€"></glyph>
      <glyph glyph-name="minus" unicode="−"></glyph>
      </font>
</defs>
</svg>
